找回密码

蓝光电影网

查看: 88|回复: 0

[2160p] 创业先锋 Tucker.The.Man.and.His.Dream.1988.2160p.AMZN.WEB-DL.x265.10bit.HDR10Plus.DTS-HD.MA.TrueHD.5.1-NOGRP 18.43GB

[复制链接]
蓝光币
953
发表于 2022-6-23 08:59:34 | 显示全部楼层 |阅读模式


◎标  题 创业先锋
◎译  名 塔克:其人其梦 / 美国之梦
◎片  名 Tucker: The Man and His Dream
◎年  代 1988
◎产  地 美国
◎类  别 剧情 / 列传
◎语  言 英语
◎上映日期 1988-08-12
◎IMDb评分 6.9/10 (19150人评价)
◎IMDb链接 https://www.imdb.com/title/tt0096316/
◎豆瓣评分 6.8/10 (279人评价)
◎豆瓣链接 https://movie.douban.com/subject/1296408/
◎片  长 110 分钟
◎导  演 弗朗西斯·福特·科波拉 Francis Ford Coppola
◎编  剧 大卫·塞德勒 David Seidler
       阿诺德·舒曼 Arnold Schulman
◎演  员 马丁·兰道 Martin Landau
       杰夫·布里吉斯 Jeff Bridges
       琼·艾伦 Joan Allen
       柯林·纳麦克 Corin Nemec
       Bill Reddick Bill Reddick
       克里斯蒂安·史莱特 Christian Slater
       劳伦斯·门金 Lawrence Menkin
       Joe Flood Joe Flood
       唐·诺韦洛 Don Novello
       伦纳德·加德纳 Leonard Gardner
       杰伊·桑德斯 Jay O. Sanders
       杰茜·尼尔森 Jessie Nelson
       弗雷德里克·福瑞斯特 Frederic Forrest
       劳埃德·布里吉斯 Lloyd Bridges
       索菲亚·科波拉 Sofia Coppola
       Roland Scrivner Roland Scrivner
       尼娜·谢马兹克 Nina Siemaszko
       岩松信 Makoto Iwamatsu
       派蒂·奥斯汀 Patti Austin
       Brian Beacock Brian Beacock
       马绍尔·贝尔 Marshall Bell
       Scott Beach Scott Beach
       迪恩·斯托克维尔 Dean Stockwell
       彼得·多纳特 Peter Donat
       Dean Goodman Dean Goodman
       伊莱亚斯·科泰斯 Elias Koteas
       Jay Jacobus Jay Jacobus
       Sandy Bull Sandy Bull
       迈克尔·麦克沙恩 Michael McShane
       Al Nalbandian Al Nalbandian
       Morgan Upton Morgan Upton
       弗雷德·鲁斯 Fred Roos
       乔治·卢卡斯 George Lucas
       弗雷德·富克斯 Fred Fuchs
       Joe Jackson Joe Jackson
       维托里奥·斯托拉罗 Vittorio Storaro
       珍妮特·希尔森 Janet Hirshenson
       简·詹金斯 Jane Jenkins
       阿明·甘兹 Armin Ganz
       迪安·塔沃拉里斯 Dean Tavoularis
       米兰拉·坎农诺 Milena Canonero
       特里·巴利尔 Terry Baliel
       林戴尔·奎尤 Lyndell Quiyou
       巴迪·乔·胡克 Buddy Joe Hooker
       Daniel R. Suhart Daniel R. Suhart
       H. Gordon Boos H. Gordon Boos
       Tony Hudson Tony Hudson
       史蒂夫·高利 Steve Gawley
◎标  签 美国 / 弗朗西斯·福特·科波拉 / 列传 / 贸易 / FrancisFordCoppola / 励志 / 剧情 / 美国电影
◎简  介

  1945年的美国密执安州的伊普兰蒂,著名汽车发现家普雷斯顿·塔克向犹太金融家阿贝·卡拉兹请求赐与其新设想的一种汽车以帮助。这类操纵空气动力学道理的新型“鱼雷”牌小汽车被称为“明天的汽车”。阿贝·卡拉兹答应了塔克的请求。在获得了政府的核准后,塔克以芝加哥一家战前的旧工场作为实在验场地。塔克和机械师昼夜奋战,他们必须在第一年生产出50辆小汽车。终究,在他们的不懈尽力下,第一辆“鱼雷”牌汽车被成功地制造出来。在“鱼雷”牌小汽车投入生产时,底特律的汽车制造商妒忌他的发现,他们倡议了一场打击——三大汽车公司授权参议员作为讲话人,对塔克的公司施加压力,各式刁难、诬陷塔克,还从技术上控制了塔克的公司,终究使塔克的工场因受审而开张,埋葬了塔克和他的胡想。塔克在六年后因癌症归天,底特律汽车公司接收了他的一切发现功效。
  1. Video
  2. ID                                       : 1
  3. Format                                   : HEVC
  4. Format/Info                              : High Efficiency Video Coding
  5. Format profile                           : Main [email protected]@Main
  6. HDR format                               : SMPTE ST 2094 App 4, Version 1, HDR10+ Profile B compatible
  7. Codec ID                                 : V_MPEGH/ISO/HEVC
  8. Duration                                 : 1 h 50 min
  9. Bit rate                                 : 15.0 Mb/s
  10. Width                                    : 3 840 pixels
  11. Height                                   : 1 600 pixels
  12. Display aspect ratio                     : 2.40:1
  13. Frame rate mode                          : Constant
  14. Frame rate                               : 23.976 (24000/1001/189150) FPS
  15. Color space                              : YUV
  16. Chroma subsampling                       : 4:2:0
  17. Bit depth                                : 10 bits
  18. Bits/(Pixel*Frame)                       : 0.102
  19. Stream size                              : 11.6 GiB (63%)
  20. Language                                 : English
  21. Default                                  : Yes
  22. Forced                                   : No
  23. Color range                              : Limited
  24. Color primaries                          : BT.2020
  25. Transfer characteristics                 : PQ
  26. Matrix coefficients                      : BT.2020 non-constant
  27. Mastering display color primaries        : Display P3
  28. Mastering display luminance              : min: 0.0050 cd/m2, max: 1000 cd/m2
  29. Maximum Content Light Level              : 2232 cd/m2
  30. Maximum Frame-Average Light Level        : 503 cd/m2

  31. Audio #1
  32. ID                                       : 2
  33. Format                                   : MLP FBA
  34. Format/Info                              : Meridian Lossless Packing FBA
  35. Commercial name                          : Dolby TrueHD
  36. Codec ID                                 : A_TRUEHD
  37. Duration                                 : 1 h 50 min
  38. Bit rate mode                            : Variable
  39. Bit rate                                 : 3 511 kb/s
  40. Maximum bit rate                         : 4 782 kb/s
  41. Channel(s)                               : 6 channels
  42. Channel layout                           : L R C LFE Ls Rs
  43. Sampling rate                            : 48.0 kHz
  44. Frame rate                               : 1 200.000 FPS (40 SPF)
  45. Compression mode                         : Lossless
  46. Stream size                              : 2.71 GiB (15%)
  47. Title                                    : Dolby TrueHD Audio / 5.1 / 48 kHz / 3510 kbps / 24-bit
  48. Language                                 : English
  49. Default                                  : Yes
  50. Forced                                   : No

  51. Audio #2
  52. ID                                       : 3
  53. Format                                   : DTS XLL
  54. Format/Info                              : Digital Theater Systems
  55. Commercial name                          : DTS-HD Master Audio
  56. Codec ID                                 : A_DTS
  57. Duration                                 : 1 h 50 min
  58. Bit rate mode                            : Variable
  59. Bit rate                                 : 3 965 kb/s
  60. Channel(s)                               : 6 channels
  61. Channel layout                           : C L R Ls Rs LFE
  62. Sampling rate                            : 48.0 kHz
  63. Frame rate                               : 93.750 FPS (512 SPF)
  64. Bit depth                                : 24 bits
  65. Compression mode                         : Lossless
  66. Delay relative to video                  : 3 ms
  67. Stream size                              : 3.06 GiB (17%)
  68. Title                                    : DTS-HD MA 5.1
  69. Language                                 : English
  70. Default                                  : No
  71. Forced                                   : No

  72. Audio #3
  73. ID                                       : 4
  74. Format                                   : AC-3
  75. Format/Info                              : Audio Coding 3
  76. Commercial name                          : Dolby Digital
  77. Codec ID                                 : A_AC3
  78. Duration                                 : 1 h 50 min
  79. Bit rate mode                            : Constant
  80. Bit rate                                 : 640 kb/s
  81. Channel(s)                               : 6 channels
  82. Channel layout                           : L R C LFE Ls Rs
  83. Sampling rate                            : 48.0 kHz
  84. Frame rate                               : 31.250 FPS (1536 SPF)
  85. Compression mode                         : Lossy
  86. Delay relative to video                  : 24 ms
  87. Stream size                              : 506 MiB (3%)
  88. Title                                    : Compatibility Track / Dolby Digital Audio / 5.1 / 48 kHz / 640 kbps
  89. Language                                 : English
  90. Service kind                             : Complete Main
  91. Default                                  : No
  92. Forced                                   : No

  93. Audio #4
  94. ID                                       : 5
  95. Format                                   : E-AC-3
  96. Format/Info                              : Enhanced AC-3
  97. Commercial name                          : Dolby Digital Plus
  98. Codec ID                                 : A_EAC3
  99. Duration                                 : 1 h 50 min
  100. Bit rate mode                            : Constant
  101. Bit rate                                 : 640 kb/s
  102. Channel(s)                               : 6 channels
  103. Channel layout                           : L R C LFE Ls Rs
  104. Sampling rate                            : 48.0 kHz
  105. Frame rate                               : 31.250 FPS (1536 SPF)
  106. Compression mode                         : Lossy
  107. Stream size                              : 506 MiB (3%)
  108. Language                                 : English
  109. Service kind                             : Complete Main
  110. Default                                  : No
  111. Forced                                   : No

  112. Text #1
  113. ID                                       : 6
  114. Format                                   : UTF-8
  115. Codec ID                                 : S_TEXT/UTF8
  116. Codec ID/Info                            : UTF-8 Plain Text
  117. Duration                                 : 1 h 44 min
  118. Bit rate                                 : 69 b/s
  119. Count of elements                        : 2067
  120. Stream size                              : 53.7 KiB (0%)
  121. Title                                    : SDH
  122. Language                                 : English
  123. Default                                  : Yes
  124. Forced                                   : No

  125. Text #2
  126. ID                                       : 7
  127. Format                                   : PGS
  128. Muxing mode                              : zlib
  129. Codec ID                                 : S_HDMV/PGS
  130. Codec ID/Info                            : Picture based subtitle format used on BDs/HD-DVDs
  131. Duration                                 : 1 h 44 min
  132. Bit rate                                 : 53.7 kb/s
  133. Count of elements                        : 3508
  134. Stream size                              : 40.3 MiB (0%)
  135. Language                                 : English
  136. Default                                  : No
  137. Forced                                   : No

  138. Text #3
  139. ID                                       : 8
  140. Format                                   : PGS
  141. Muxing mode                              : zlib
  142. Codec ID                                 : S_HDMV/PGS
  143. Codec ID/Info                            : Picture based subtitle format used on BDs/HD-DVDs
  144. Duration                                 : 1 h 49 min
  145. Bit rate                                 : 53.6 kb/s
  146. Count of elements                        : 3724
  147. Stream size                              : 42.1 MiB (0%)
  148. Title                                    : SDH
  149. Language                                 : English
  150. Default                                  : No
  151. Forced                                   : No

  152. Text #4
  153. ID                                       : 9
  154. Format                                   : PGS
  155. Muxing mode                              : zlib
  156. Codec ID                                 : S_HDMV/PGS
  157. Codec ID/Info                            : Picture based subtitle format used on BDs/HD-DVDs
  158. Duration                                 : 1 h 45 min
  159. Bit rate                                 : 49.5 kb/s
  160. Count of elements                        : 3496
  161. Stream size                              : 37.3 MiB (0%)
  162. Title                                    : Latin American
  163. Language                                 : Spanish
  164. Default                                  : No
  165. Forced                                   : No

  166. Menu
  167. 00:00:00.000                             : en:Chapter 1
  168. 00:05:17.192                             : en:Chapter 2
  169. 00:12:38.174                             : en:Chapter 3
  170. 00:19:40.971                             : en:Chapter 4
  171. 00:26:29.296                             : en:Chapter 5
  172. 00:32:46.089                             : en:Chapter 6
  173. 00:39:02.590                             : en:Chapter 7
  174. 00:42:35.803                             : en:Chapter 8
  175. 00:50:55.010                             : en:Chapter 9
  176. 00:58:46.523                             : en:Chapter 10
  177. 01:04:58.019                             : en:Chapter 11
  178. 01:10:32.395                             : en:Chapter 12
  179. 01:17:55.713                             : en:Chapter 13
  180. 01:25:05.434                             : en:Chapter 14
  181. 01:30:21.249                             : en:Chapter 15
  182. 01:42:02.658                             : en:Chapter 16
复制代码




                                       
                                       

                                       
                                       
                                       




创业先锋 Tucker.The.Man.and.His.Dream.1988.2160p.AMZN.WEB-DL.x265.10bit.HDR10Plus.DTS-HD.MA.TrueHD.5.1-NOGRP 18.43GB

Tucker.The.Man.and.His.Dream.1988.2160p.AMZN.WEB-DL.x265.10bit.HDR10Plus.DTS-HD..torrent

23.76 KB, 下载次数: 11, 下载积分: 蓝光币 -2

回复

使用道具 举报

懒得打字嘛,点击右侧快捷回复 【右侧内容,后台自定义】
您需要登录后才可以回帖 登录 | 立即加入

本版积分规则

Archiver|小黑屋| 蓝光电影网 |网站地图

Copyright © 2021 Comsenz Inc. Powered by 蓝光电影网

蓝光电影网

本站内容由用户自主分享和转载自互联网,转载目的在于传递更多信息,并不代表本网赞同其观点和对其真实性负责。

如有侵权、违反国家法律政策行为,请联系我们,我们会第一时间及时清除和处理!

举报反馈邮箱:[email protected]

快速回复 返回顶部 返回列表