找回密码

蓝光电影网

查看: 332|回复: 7

[2160p] 明日边缘 Edge.of.Tomorrow.2014.2160p.BluRay.x264.8bit.SDR.DTS-HD.MA.TrueHD.7.1.Atmos-SWTYBLZ 46.61GB

[复制链接]
蓝光币
894
发表于 2022-7-1 12:21:41 | 显示全部楼层 |阅读模式


◎标  题 明日边沿
◎译  名 异空战士(港) / 明日鸿沟(台) / 杀戮循环 / 生死循环 / We Mortals Are / All You Need Is Kill / Live Die Repeat: Edge of Tomorrow
◎片  名 Edge of Tomorrow
◎年  代 2014
◎产  地 美国 / 加拿大
◎类  别 行动 / 科幻
◎语  言 英语
◎上映日期 2014-06-06(美国/中国大陆)
◎IMDb评分 7.9/10 (656555人评价)
◎IMDb链接 https://www.imdb.com/title/tt1631867/
◎豆瓣评分 8.1/10 (441303人评价)
◎豆瓣链接 https://movie.douban.com/subject/4746257/
◎片  长 114分钟(中国大陆)
◎导  演 道格·里曼 Doug Liman
◎编  剧 克里斯托弗·麦奎里 Christopher McQuarrie
       杰斯·巴特沃斯 Jez Butterworth
       约翰-亨利·巴特沃斯 John-Henry Butterworth
       樱坂洋 Hiroshi Sakurazaka
       丹特·哈珀 Dante Harper
       罗伯托·奥奇 Roberto Orci
       艾里克斯·库兹曼 Alex Kurtzman
       卓比·哈罗德 Joby Harold
◎演  员 汤姆·克鲁斯 Tom Cruise
       艾米莉·布朗特 Emily Blunt
       布莱丹·格里森 Brendan Gleeson
       比尔·帕克斯顿 Bill Paxton
       约纳斯·阿姆斯特朗 Jonas Armstrong
       托尼·威 Tony Way
       奇克·盖瑞 Kick Gurry
       弗朗茨·德拉姆 Franz Drameh
       德拉戈米尔·米希克 Dragomir Mrsic
       夏洛特·莱利 Charlotte Riley
       羽田正义 Masayoshi Haneda
       特伦斯·梅纳德 Terence Maynard
       诺亚·泰勒 Noah Taylor
       劳拉·普沃 Lara Pulver
       玛德琳·曼托克 Madeleine Mantock
       罗南·萨莫尔斯 Ronan Summers
       汤米·坎贝尔 Tommy Campbell
       约翰·达顿 John Dutton
       玛丽安娜·琼-巴普蒂斯特 Marianne Jean-Baptiste
       大卫·卡耶 David Kaye
       杰里米·皮文 Jeremy Piven
       豪尔赫·莱昂·马丁内斯 Jorge Leon Martinez
       艾德里安·帕默 Adrian Palmer
       戈尔迪·格林 Goldie Green
       伊莱恩·考尔菲德 Elaine Caulfield
       吉姆·斯图格恩 Jim Sturgeon
       宾利·卡鲁 Bentley Kalu
       塞尔哈特·梅汀 Serhat Metin
       李·阿斯奎斯-柯 Lee Asquith-Coe
       安娜·鲍丁 Anna Botting
       埃文·斯托夫 Erwin Stoff
       克里斯托弗·贝克 Christophe Beck
       奥利弗·肖尔 Oliver Scholl
       凯特·霍利 Kate Hawley
       埃蒙·巴特勒 Eamonn Butler
       达里尔·索丘克 Daryl Sawchuk
       劳尔·佩雷斯 Raul Perez
       杰西卡卡林顿 Jessica Carrington
       戴维·温斯坦 David Weinstein
       杨亮 Liang Yang
       阿斯莉·赞德里 Assly Zandry
       娜塔莎·古尔登 Natasha Goulden
       塞巴斯蒂安·布鲁特 Sebastian Blunt
       贝丝·戈达德 Beth Goddard
◎简  介

  未来天下堕入外星人入侵的发急中,军事演说家凯奇少校(汤姆·克鲁斯 Tom Cruise 饰)害怕上疆场,他从没想过将军(布莱丹·格里森 Brendan Gleeson 饰)会让他去批示行将起头的“诺曼底战争”,拒绝接管号令以后将军居然恶整了他,那就是把他当做逃兵扔进了军 营中。凯奇被归入了J小队中停止战役,战争的第一天就惨死在疆场,没想到这一死让他具有了时空循环的才能,而唯一相信他的人就是被称为“全金属战士”的丽塔·沃拉塔斯基(艾米莉·布朗特 Emily Blunt 饰)。二人起头了时空循环作战,在练习凯奇的同时他们发现了控制时候的奥秘,这与外星人“主脑”欧米茄有关,可是唯一能取告捷利的方式就是让凯奇不竭死去、不竭重启时候。在不竭反复登陆那天的战役的同时,凯奇越来越不想落空丽塔……
  1. Video
  2. ID                                       : 1
  3. Format                                   : AVC
  4. Format/Info                              : Advanced Video Codec
  5. Format profile                           : [email protected]
  6. Format settings                          : CABAC / 5 Ref Frames
  7. Format settings, CABAC                   : Yes
  8. Format settings, Reference frames        : 5 frames
  9. Codec ID                                 : V_MPEG4/ISO/AVC
  10. Duration                                 : 1 h 53 min
  11. Bit rate                                 : 50.1 Mb/s
  12. Width                                    : 3 840 pixels
  13. Height                                   : 1 600 pixels
  14. Display aspect ratio                     : 2.40:1
  15. Frame rate mode                          : Constant
  16. Frame rate                               : 23.976 (24000/1001/189150) FPS
  17. Color space                              : YUV
  18. Chroma subsampling                       : 4:2:0
  19. Bit depth                                : 8 bits
  20. Scan type                                : Progressive
  21. Bits/(Pixel*Frame)                       : 0.340
  22. Stream size                              : 39.7 GiB (86%)
  23. Writing library                          : x264 core 157 r2935 545de2f
  24. Encoding settings                        : cabac=1 / ref=5 / deblock=1:-1:-1 / analyse=0x3:0x113 / me=umh / subme=10 / psy=1 / psy_rd=1.00:0.15 / mixed_ref=1 / me_range=48 / chroma_me=1 / trellis=2 / 8x8dct=1 / cqm=0 / deadzone=21,11 / fast_pskip=1 / chroma_qp_offset=-3 / threads=48 / lookahead_threads=4 / sliced_threads=0 / nr=0 / decimate=0 / interlaced=0 / bluray_compat=0 / constrained_intra=0 / bframes=3 / b_pyramid=2 / b_adapt=2 / b_bias=0 / direct=3 / weightb=1 / open_gop=0 / weightp=2 / keyint=250 / keyint_min=23 / scenecut=40 / intra_refresh=0 / rc_lookahead=50 / rc=crf / mbtree=1 / crf=18.0 / qcomp=0.60 / qpmin=0 / qpmax=69 / qpstep=4 / ip_ratio=1.40 / aq=1:1.00
  25. Default                                  : Yes
  26. Forced                                   : No
  27. Audio #1
  28. ID                                       : 2
  29. Format                                   : MLP FBA 16-ch
  30. Format/Info                              : Meridian Lossless Packing FBA with 16-channel presentation
  31. Commercial name                          : Dolby TrueHD with Dolby Atmos
  32. Codec ID                                 : A_TRUEHD
  33. Duration                                 : 1 h 53 min
  34. Bit rate mode                            : Variable
  35. Bit rate                                 : 3 258 kb/s
  36. Maximum bit rate                         : 5 493 kb/s
  37. Channel(s)                               : 8 channels
  38. Channel layout                           : L R C LFE Ls Rs Lb Rb
  39. Sampling rate                            : 48.0 kHz
  40. Frame rate                               : 1 200.000 FPS (40 SPF)
  41. Compression mode                         : Lossless
  42. Stream size                              : 2.58 GiB (6%)
  43. Title                                    : TrueHD Atmos 7.1
  44. Language                                 : English
  45. Default                                  : Yes
  46. Forced                                   : No
  47. Number of dynamic objects                : 11
  48. Bed channel count                        : 1 channel
  49. Bed channel configuration                : LFE
  50. Audio #2
  51. ID                                       : 3
  52. Format                                   : DTS XLL
  53. Format/Info                              : Digital Theater Systems
  54. Commercial name                          : DTS-HD Master Audio
  55. Codec ID                                 : A_DTS
  56. Duration                                 : 1 h 53 min
  57. Bit rate mode                            : Variable
  58. Bit rate                                 : 4 223 kb/s
  59. Channel(s)                               : 8 channels
  60. Channel layout                           : C L R LFE Lb Rb Lss Rss
  61. Sampling rate                            : 48.0 kHz
  62. Frame rate                               : 93.750 FPS (512 SPF)
  63. Bit depth                                : 24 bits
  64. Compression mode                         : Lossless
  65. Stream size                              : 3.35 GiB (7%)
  66. Title                                    : DTS-HD MA 7.1
  67. Language                                 : English
  68. Default                                  : No
  69. Forced                                   : No
  70. Audio #3
  71. ID                                       : 4
  72. Format                                   : AC-3
  73. Format/Info                              : Audio Coding 3
  74. Commercial name                          : Dolby Digital
  75. Format settings                          : Dolby Surround EX
  76. Codec ID                                 : A_AC3
  77. Duration                                 : 1 h 53 min
  78. Bit rate mode                            : Constant
  79. Bit rate                                 : 448 kb/s
  80. Channel(s)                               : 6 channels
  81. Channel layout                           : L R C LFE Ls Rs
  82. Sampling rate                            : 48.0 kHz
  83. Frame rate                               : 31.250 FPS (1536 SPF)
  84. Compression mode                         : Lossy
  85. Stream size                              : 364 MiB (1%)
  86. Title                                    : DD 5.1
  87. Language                                 : English
  88. Service kind                             : Complete Main
  89. Default                                  : No
  90. Forced                                   : No
  91. Text #1
  92. ID                                       : 5
  93. Format                                   : UTF-8
  94. Codec ID                                 : S_TEXT/UTF8
  95. Codec ID/Info                            : UTF-8 Plain Text
  96. Duration                                 : 1 h 45 min
  97. Bit rate                                 : 55 b/s
  98. Count of elements                        : 1362
  99. Stream size                              : 42.6 KiB (0%)
  100. Language                                 : English
  101. Default                                  : Yes
  102. Forced                                   : No
  103. Text #2
  104. ID                                       : 6
  105. Format                                   : UTF-8
  106. Codec ID                                 : S_TEXT/UTF8
  107. Codec ID/Info                            : UTF-8 Plain Text
  108. Duration                                 : 1 h 45 min
  109. Bit rate                                 : 56 b/s
  110. Count of elements                        : 1421
  111. Stream size                              : 43.6 KiB (0%)
  112. Title                                    : SDH
  113. Language                                 : English
  114. Default                                  : No
  115. Forced                                   : No
  116. Text #3
  117. ID                                       : 7
  118. Format                                   : PGS
  119. Muxing mode                              : zlib
  120. Codec ID                                 : S_HDMV/PGS
  121. Codec ID/Info                            : Picture based subtitle format used on BDs/HD-DVDs
  122. Duration                                 : 1 h 45 min
  123. Bit rate                                 : 33.9 kb/s
  124. Count of elements                        : 2958
  125. Stream size                              : 25.6 MiB (0%)
  126. Title                                    : English (SDH)
  127. Language                                 : English
  128. Default                                  : No
  129. Forced                                   : No
  130. Text #4
  131. ID                                       : 8
  132. Format                                   : PGS
  133. Muxing mode                              : zlib
  134. Codec ID                                 : S_HDMV/PGS
  135. Codec ID/Info                            : Picture based subtitle format used on BDs/HD-DVDs
  136. Duration                                 : 1 h 52 min
  137. Bit rate                                 : 13.5 kb/s
  138. Count of elements                        : 2886
  139. Stream size                              : 10.9 MiB (0%)
  140. Title                                    : Arabic
  141. Language                                 : Arabic
  142. Default                                  : No
  143. Forced                                   : No
  144. Text #5
  145. ID                                       : 9
  146. Format                                   : PGS
  147. Muxing mode                              : zlib
  148. Codec ID                                 : S_HDMV/PGS
  149. Codec ID/Info                            : Picture based subtitle format used on BDs/HD-DVDs
  150. Duration                                 : 1 h 52 min
  151. Bit rate                                 : 25.2 kb/s
  152. Count of elements                        : 2894
  153. Stream size                              : 20.3 MiB (0%)
  154. Title                                    : Bulgarian
  155. Language                                 : Bulgarian
  156. Default                                  : No
  157. Forced                                   : No
  158. Text #6
  159. ID                                       : 10
  160. Format                                   : PGS
  161. Muxing mode                              : zlib
  162. Codec ID                                 : S_HDMV/PGS
  163. Codec ID/Info                            : Picture based subtitle format used on BDs/HD-DVDs
  164. Duration                                 : 1 h 52 min
  165. Bit rate                                 : 25.5 kb/s
  166. Count of elements                        : 2888
  167. Stream size                              : 20.6 MiB (0%)
  168. Title                                    : Chinese (Cantonese)
  169. Language                                 : Chinese
  170. Default                                  : No
  171. Forced                                   : No
  172. Text #7
  173. ID                                       : 11
  174. Format                                   : PGS
  175. Muxing mode                              : zlib
  176. Codec ID                                 : S_HDMV/PGS
  177. Codec ID/Info                            : Picture based subtitle format used on BDs/HD-DVDs
  178. Duration                                 : 1 h 53 min
  179. Bit rate                                 : 27.7 kb/s
  180. Count of elements                        : 2956
  181. Stream size                              : 22.4 MiB (0%)
  182. Title                                    : Chinese (Simplified)
  183. Language                                 : Chinese
  184. Default                                  : No
  185. Forced                                   : No
  186. Text #8
  187. ID                                       : 12
  188. Format                                   : PGS
  189. Muxing mode                              : zlib
  190. Codec ID                                 : S_HDMV/PGS
  191. Codec ID/Info                            : Picture based subtitle format used on BDs/HD-DVDs
  192. Duration                                 : 1 h 52 min
  193. Bit rate                                 : 25.7 kb/s
  194. Count of elements                        : 2910
  195. Stream size                              : 20.7 MiB (0%)
  196. Title                                    : Chinese (Traditional)
  197. Language                                 : Chinese
  198. Default                                  : No
  199. Forced                                   : No
  200. Text #9
  201. ID                                       : 13
  202. Format                                   : PGS
  203. Muxing mode                              : zlib
  204. Codec ID                                 : S_HDMV/PGS
  205. Codec ID/Info                            : Picture based subtitle format used on BDs/HD-DVDs
  206. Duration                                 : 1 h 52 min
  207. Bit rate                                 : 25.5 kb/s
  208. Count of elements                        : 2860
  209. Stream size                              : 20.6 MiB (0%)
  210. Title                                    : Croatian
  211. Language                                 : Croatian
  212. Default                                  : No
  213. Forced                                   : No
  214. Text #10
  215. ID                                       : 14
  216. Format                                   : PGS
  217. Muxing mode                              : zlib
  218. Codec ID                                 : S_HDMV/PGS
  219. Codec ID/Info                            : Picture based subtitle format used on BDs/HD-DVDs
  220. Duration                                 : 1 h 52 min
  221. Bit rate                                 : 26.3 kb/s
  222. Count of elements                        : 2864
  223. Stream size                              : 21.3 MiB (0%)
  224. Title                                    : Czech
  225. Language                                 : Czech
  226. Default                                  : No
  227. Forced                                   : No
  228. Text #11
  229. ID                                       : 15
  230. Format                                   : PGS
  231. Muxing mode                              : zlib
  232. Codec ID                                 : S_HDMV/PGS
  233. Codec ID/Info                            : Picture based subtitle format used on BDs/HD-DVDs
  234. Duration                                 : 1 h 52 min
  235. Bit rate                                 : 23.1 kb/s
  236. Count of elements                        : 2870
  237. Stream size                              : 18.7 MiB (0%)
  238. Title                                    : Danish
  239. Language                                 : Danish
  240. Default                                  : No
  241. Forced                                   : No
  242. Text #12
  243. ID                                       : 16
  244. Format                                   : PGS
  245. Muxing mode                              : zlib
  246. Codec ID                                 : S_HDMV/PGS
  247. Codec ID/Info                            : Picture based subtitle format used on BDs/HD-DVDs
  248. Duration                                 : 1 h 52 min
  249. Bit rate                                 : 24.4 kb/s
  250. Count of elements                        : 2858
  251. Stream size                              : 19.7 MiB (0%)
  252. Title                                    : Dutch
  253. Language                                 : Dutch
  254. Default                                  : No
  255. Forced                                   : No
  256. Text #13
  257. ID                                       : 17
  258. Format                                   : PGS
  259. Muxing mode                              : zlib
  260. Codec ID                                 : S_HDMV/PGS
  261. Codec ID/Info                            : Picture based subtitle format used on BDs/HD-DVDs
  262. Duration                                 : 1 h 52 min
  263. Bit rate                                 : 21.2 kb/s
  264. Count of elements                        : 2884
  265. Stream size                              : 17.1 MiB (0%)
  266. Title                                    : Estonian
  267. Language                                 : Estonian
  268. Default                                  : No
  269. Forced                                   : No
  270. Text #14
  271. ID                                       : 18
  272. Format                                   : PGS
  273. Muxing mode                              : zlib
  274. Codec ID                                 : S_HDMV/PGS
  275. Codec ID/Info                            : Picture based subtitle format used on BDs/HD-DVDs
  276. Duration                                 : 1 h 52 min
  277. Bit rate                                 : 24.0 kb/s
  278. Count of elements                        : 2804
  279. Stream size                              : 19.4 MiB (0%)
  280. Title                                    : Finnish
  281. Language                                 : Finnish
  282. Default                                  : No
  283. Forced                                   : No
  284. Text #15
  285. ID                                       : 19
  286. Format                                   : PGS
  287. Muxing mode                              : zlib
  288. Codec ID                                 : S_HDMV/PGS
  289. Codec ID/Info                            : Picture based subtitle format used on BDs/HD-DVDs
  290. Duration                                 : 1 h 52 min
  291. Bit rate                                 : 25.3 kb/s
  292. Count of elements                        : 2648
  293. Stream size                              : 20.4 MiB (0%)
  294. Title                                    : French
  295. Language                                 : French
  296. Default                                  : No
  297. Forced                                   : No
  298. Text #16
  299. ID                                       : 20
  300. Format                                   : PGS
  301. Muxing mode                              : zlib
  302. Codec ID                                 : S_HDMV/PGS
  303. Codec ID/Info                            : Picture based subtitle format used on BDs/HD-DVDs
  304. Duration                                 : 1 h 45 min
  305. Bit rate                                 : 39.1 kb/s
  306. Count of elements                        : 2726
  307. Stream size                              : 29.5 MiB (0%)
  308. Title                                    : German (SDH)
  309. Language                                 : German
  310. Default                                  : No
  311. Forced                                   : No
  312. Text #17
  313. ID                                       : 21
  314. Format                                   : PGS
  315. Muxing mode                              : zlib
  316. Codec ID                                 : S_HDMV/PGS
  317. Codec ID/Info                            : Picture based subtitle format used on BDs/HD-DVDs
  318. Duration                                 : 1 h 52 min
  319. Bit rate                                 : 20.0 kb/s
  320. Count of elements                        : 2876
  321. Stream size                              : 16.1 MiB (0%)
  322. Title                                    : Hebrew
  323. Language                                 : Hebrew
  324. Default                                  : No
  325. Forced                                   : No
  326. Text #18
  327. ID                                       : 22
  328. Format                                   : PGS
  329. Muxing mode                              : zlib
  330. Codec ID                                 : S_HDMV/PGS
  331. Codec ID/Info                            : Picture based subtitle format used on BDs/HD-DVDs
  332. Duration                                 : 1 h 52 min
  333. Bit rate                                 : 28.4 kb/s
  334. Count of elements                        : 2876
  335. Stream size                              : 22.9 MiB (0%)
  336. Title                                    : Hungarian
  337. Language                                 : Hungarian
  338. Default                                  : No
  339. Forced                                   : No
  340. Text #19
  341. ID                                       : 23
  342. Format                                   : PGS
  343. Muxing mode                              : zlib
  344. Codec ID                                 : S_HDMV/PGS
  345. Codec ID/Info                            : Picture based subtitle format used on BDs/HD-DVDs
  346. Duration                                 : 1 h 52 min
  347. Bit rate                                 : 24.6 kb/s
  348. Count of elements                        : 2780
  349. Stream size                              : 19.8 MiB (0%)
  350. Title                                    : Icelandic
  351. Language                                 : Icelandic
  352. Default                                  : No
  353. Forced                                   : No
  354. Text #20
  355. ID                                       : 24
  356. Format                                   : PGS
  357. Muxing mode                              : zlib
  358. Codec ID                                 : S_HDMV/PGS
  359. Codec ID/Info                            : Picture based subtitle format used on BDs/HD-DVDs
  360. Duration                                 : 1 h 52 min
  361. Bit rate                                 : 29.6 kb/s
  362. Count of elements                        : 2868
  363. Stream size                              : 23.9 MiB (0%)
  364. Title                                    : Indonesian
  365. Language                                 : Indonesian
  366. Default                                  : No
  367. Forced                                   : No
  368. Text #21
  369. ID                                       : 25
  370. Format                                   : PGS
  371. Muxing mode                              : zlib
  372. Codec ID                                 : S_HDMV/PGS
  373. Codec ID/Info                            : Picture based subtitle format used on BDs/HD-DVDs
  374. Duration                                 : 1 h 52 min
  375. Bit rate                                 : 31.9 kb/s
  376. Count of elements                        : 3050
  377. Stream size                              : 25.8 MiB (0%)
  378. Title                                    : Italian (SDH)
  379. Language                                 : Italian
  380. Default                                  : No
  381. Forced                                   : No
  382. Text #22
  383. ID                                       : 26
  384. Format                                   : PGS
  385. Muxing mode                              : zlib
  386. Codec ID                                 : S_HDMV/PGS
  387. Codec ID/Info                            : Picture based subtitle format used on BDs/HD-DVDs
  388. Duration                                 : 1 h 45 min
  389. Bit rate                                 : 21.2 kb/s
  390. Count of elements                        : 2361
  391. Stream size                              : 16.0 MiB (0%)
  392. Title                                    : Japanese
  393. Language                                 : Japanese
  394. Default                                  : No
  395. Forced                                   : No
  396. Text #23
  397. ID                                       : 27
  398. Format                                   : PGS
  399. Muxing mode                              : zlib
  400. Codec ID                                 : S_HDMV/PGS
  401. Codec ID/Info                            : Picture based subtitle format used on BDs/HD-DVDs
  402. Duration                                 : 1 h 46 min
  403. Bit rate                                 : 22.3 kb/s
  404. Count of elements                        : 2856
  405. Stream size                              : 16.9 MiB (0%)
  406. Title                                    : Korean
  407. Language                                 : Korean
  408. Default                                  : No
  409. Forced                                   : No
  410. Text #24
  411. ID                                       : 28
  412. Format                                   : PGS
  413. Muxing mode                              : zlib
  414. Codec ID                                 : S_HDMV/PGS
  415. Codec ID/Info                            : Picture based subtitle format used on BDs/HD-DVDs
  416. Duration                                 : 1 h 52 min
  417. Bit rate                                 : 22.6 kb/s
  418. Count of elements                        : 2852
  419. Stream size                              : 18.2 MiB (0%)
  420. Title                                    : Latvian
  421. Language                                 : Latvian
  422. Default                                  : No
  423. Forced                                   : No
  424. Text #25
  425. ID                                       : 29
  426. Format                                   : PGS
  427. Muxing mode                              : zlib
  428. Codec ID                                 : S_HDMV/PGS
  429. Codec ID/Info                            : Picture based subtitle format used on BDs/HD-DVDs
  430. Duration                                 : 1 h 52 min
  431. Bit rate                                 : 23.7 kb/s
  432. Count of elements                        : 2892
  433. Stream size                              : 19.1 MiB (0%)
  434. Title                                    : Lithuanian
  435. Language                                 : Lithuanian
  436. Default                                  : No
  437. Forced                                   : No
  438. Text #26
  439. ID                                       : 30
  440. Format                                   : PGS
  441. Muxing mode                              : zlib
  442. Codec ID                                 : S_HDMV/PGS
  443. Codec ID/Info                            : Picture based subtitle format used on BDs/HD-DVDs
  444. Duration                                 : 1 h 52 min
  445. Bit rate                                 : 24.5 kb/s
  446. Count of elements                        : 2802
  447. Stream size                              : 19.8 MiB (0%)
  448. Title                                    : Norwegian
  449. Language                                 : Norwegian
  450. Default                                  : No
  451. Forced                                   : No
  452. Text #27
  453. ID                                       : 31
  454. Format                                   : PGS
  455. Muxing mode                              : zlib
  456. Codec ID                                 : S_HDMV/PGS
  457. Codec ID/Info                            : Picture based subtitle format used on BDs/HD-DVDs
  458. Duration                                 : 1 h 52 min
  459. Bit rate                                 : 23.4 kb/s
  460. Count of elements                        : 2690
  461. Stream size                              : 18.9 MiB (0%)
  462. Title                                    : Polish
  463. Language                                 : Polish
  464. Default                                  : No
  465. Forced                                   : No
  466. Text #28
  467. ID                                       : 32
  468. Format                                   : PGS
  469. Muxing mode                              : zlib
  470. Codec ID                                 : S_HDMV/PGS
  471. Codec ID/Info                            : Picture based subtitle format used on BDs/HD-DVDs
  472. Duration                                 : 1 h 52 min
  473. Bit rate                                 : 26.7 kb/s
  474. Count of elements                        : 2850
  475. Stream size                              : 21.5 MiB (0%)
  476. Title                                    : Portuguese (Brazilian)
  477. Language                                 : Portuguese
  478. Default                                  : No
  479. Forced                                   : No
  480. Text #29
  481. ID                                       : 33
  482. Format                                   : PGS
  483. Muxing mode                              : zlib
  484. Codec ID                                 : S_HDMV/PGS
  485. Codec ID/Info                            : Picture based subtitle format used on BDs/HD-DVDs
  486. Duration                                 : 1 h 52 min
  487. Bit rate                                 : 26.6 kb/s
  488. Count of elements                        : 2836
  489. Stream size                              : 21.5 MiB (0%)
  490. Title                                    : Portuguese (Iberian)
  491. Language                                 : Portuguese
  492. Default                                  : No
  493. Forced                                   : No
  494. Text #30
  495. ID                                       : 34
  496. Format                                   : PGS
  497. Muxing mode                              : zlib
  498. Codec ID                                 : S_HDMV/PGS
  499. Codec ID/Info                            : Picture based subtitle format used on BDs/HD-DVDs
  500. Duration                                 : 1 h 52 min
  501. Bit rate                                 : 26.9 kb/s
  502. Count of elements                        : 2586
  503. Stream size                              : 21.7 MiB (0%)
  504. Title                                    : Romanian
  505. Language                                 : Romanian
  506. Default                                  : No
  507. Forced                                   : No
  508. Text #31
  509. ID                                       : 35
  510. Format                                   : PGS
  511. Muxing mode                              : zlib
  512. Codec ID                                 : S_HDMV/PGS
  513. Codec ID/Info                            : Picture based subtitle format used on BDs/HD-DVDs
  514. Duration                                 : 1 h 52 min
  515. Bit rate                                 : 27.0 kb/s
  516. Count of elements                        : 2890
  517. Stream size                              : 21.8 MiB (0%)
  518. Title                                    : Russian
  519. Language                                 : Russian
  520. Default                                  : No
  521. Forced                                   : No
  522. Text #32
  523. ID                                       : 36
  524. Format                                   : PGS
  525. Muxing mode                              : zlib
  526. Codec ID                                 : S_HDMV/PGS
  527. Codec ID/Info                            : Picture based subtitle format used on BDs/HD-DVDs
  528. Duration                                 : 1 h 52 min
  529. Bit rate                                 : 23.1 kb/s
  530. Count of elements                        : 2876
  531. Stream size                              : 18.6 MiB (0%)
  532. Title                                    : Serbian
  533. Language                                 : Serbian
  534. Default                                  : No
  535. Forced                                   : No
  536. Text #33
  537. ID                                       : 37
  538. Format                                   : PGS
  539. Muxing mode                              : zlib
  540. Codec ID                                 : S_HDMV/PGS
  541. Codec ID/Info                            : Picture based subtitle format used on BDs/HD-DVDs
  542. Duration                                 : 1 h 52 min
  543. Bit rate                                 : 20.8 kb/s
  544. Count of elements                        : 2564
  545. Stream size                              : 16.8 MiB (0%)
  546. Title                                    : Slovenian
  547. Language                                 : Slovenian
  548. Default                                  : No
  549. Forced                                   : No
  550. Text #34
  551. ID                                       : 38
  552. Format                                   : PGS
  553. Muxing mode                              : zlib
  554. Codec ID                                 : S_HDMV/PGS
  555. Codec ID/Info                            : Picture based subtitle format used on BDs/HD-DVDs
  556. Duration                                 : 1 h 52 min
  557. Bit rate                                 : 27.1 kb/s
  558. Count of elements                        : 2808
  559. Stream size                              : 21.8 MiB (0%)
  560. Title                                    : Spanish (Castilian)
  561. Language                                 : Spanish
  562. Default                                  : No
  563. Forced                                   : No
  564. Text #35
  565. ID                                       : 39
  566. Format                                   : PGS
  567. Muxing mode                              : zlib
  568. Codec ID                                 : S_HDMV/PGS
  569. Codec ID/Info                            : Picture based subtitle format used on BDs/HD-DVDs
  570. Duration                                 : 1 h 52 min
  571. Bit rate                                 : 28.7 kb/s
  572. Count of elements                        : 2872
  573. Stream size                              : 23.2 MiB (0%)
  574. Title                                    : Spanish (Latin American)
  575. Language                                 : Spanish
  576. Default                                  : No
  577. Forced                                   : No
  578. Text #36
  579. ID                                       : 40
  580. Format                                   : PGS
  581. Muxing mode                              : zlib
  582. Codec ID                                 : S_HDMV/PGS
  583. Codec ID/Info                            : Picture based subtitle format used on BDs/HD-DVDs
  584. Duration                                 : 1 h 52 min
  585. Bit rate                                 : 27.7 kb/s
  586. Count of elements                        : 2764
  587. Stream size                              : 22.4 MiB (0%)
  588. Title                                    : Swedish
  589. Language                                 : Swedish
  590. Default                                  : No
  591. Forced                                   : No
  592. Text #37
  593. ID                                       : 41
  594. Format                                   : PGS
  595. Muxing mode                              : zlib
  596. Codec ID                                 : S_HDMV/PGS
  597. Codec ID/Info                            : Picture based subtitle format used on BDs/HD-DVDs
  598. Duration                                 : 1 h 53 min
  599. Bit rate                                 : 23.0 kb/s
  600. Count of elements                        : 2864
  601. Stream size                              : 18.6 MiB (0%)
  602. Title                                    : Thai
  603. Language                                 : Thai
  604. Default                                  : No
  605. Forced                                   : No
  606. Text #38
  607. ID                                       : 42
  608. Format                                   : PGS
  609. Muxing mode                              : zlib
  610. Codec ID                                 : S_HDMV/PGS
  611. Codec ID/Info                            : Picture based subtitle format used on BDs/HD-DVDs
  612. Duration                                 : 1 h 52 min
  613. Bit rate                                 : 25.7 kb/s
  614. Count of elements                        : 2892
  615. Stream size                              : 20.7 MiB (0%)
  616. Title                                    : Turkish
  617. Language                                 : Turkish
  618. Default                                  : No
  619. Forced                                   : No
  620. Menu
  621. 00:00:00.000                             : en:Chapter 1
  622. 00:10:27.126                             : en:Chapter 2
  623. 00:17:38.057                             : en:Chapter 3
  624. 00:24:49.154                             : en:Chapter 4
  625. 00:35:56.905                             : en:Chapter 5
  626. 00:46:26.242                             : en:Chapter 6
  627. 00:54:33.729                             : en:Chapter 7
  628. 01:04:58.520                             : en:Chapter 8
  629. 01:12:52.034                             : en:Chapter 9
  630. 01:23:07.858                             : en:Chapter 10
  631. 01:32:33.089                             : en:Chapter 11
  632. 01:42:52.541                             : en:Chapter 12
  633. 01:45:45.172                             : en:Chapter 13
复制代码











                                       
                                       

                                       
                                       
                                       




明日边沿 Edge.of.Tomorrow.2014.2160p.BluRay.x264.8bit.SDR.DTS-HD.MA.TrueHD.7.1.Atmos-SWTYBLZ 46.61GB

Edge.of.Tomorrow.2014.2160p.BluRay.x264.8bit.SDR.DTS-HD.MA.TrueHD.7.1.Atmos-SWTY.torrent

59.02 KB, 下载次数: 39, 下载积分: 蓝光币 -2

回复

使用道具 举报

蓝光币
3430
发表于 2022-7-1 12:57:34 | 显示全部楼层

既然你诚信诚意的推荐了,那我就勉为其难的看看吧!蓝光电影网不走平凡路。
回复 支持 反对

使用道具 举报

蓝光币
8
发表于 2022-7-1 16:27:19 | 显示全部楼层
楼主发贴辛苦了,谢谢楼主分享!我觉得蓝光电影网是注册对了!
回复 支持 反对

使用道具 举报

蓝光币
32
发表于 2022-7-1 22:47:03 | 显示全部楼层

这个帖子不回对不起自己!我想我是一天也不能离开蓝光电影网。
回复 支持 反对

使用道具 举报

蓝光币
1894
发表于 2022-7-2 13:41:36 | 显示全部楼层

我看不错噢 谢谢楼主!蓝光电影网越来越好!
回复 支持 反对

使用道具 举报

蓝光币
336
发表于 2022-7-2 15:12:03 | 显示全部楼层

楼主太厉害了!楼主,电影应该很好看我觉得蓝光电影网真是个好地方!
回复 支持 反对

使用道具 举报

蓝光币
48
发表于 2022-7-2 21:21:32 | 显示全部楼层
楼主发贴辛苦了,谢谢楼主分享!我觉得蓝光电影网是注册对了!
回复 支持 反对

使用道具 举报

蓝光币
1
发表于 2022-7-4 03:21:17 | 显示全部楼层
1111111111111111
回复 支持 反对

使用道具 举报

懒得打字嘛,点击右侧快捷回复 【右侧内容,后台自定义】
您需要登录后才可以回帖 登录 | 立即加入

本版积分规则

Archiver|小黑屋| 蓝光电影网 |网站地图

Copyright © 2021 Comsenz Inc. Powered by 蓝光电影网

蓝光电影网

本站内容由用户自主分享和转载自互联网,转载目的在于传递更多信息,并不代表本网赞同其观点和对其真实性负责。

如有侵权、违反国家法律政策行为,请联系我们,我们会第一时间及时清除和处理!

举报反馈邮箱:[email protected]

快速回复 返回顶部 返回列表