找回密码

蓝光电影网

查看: 32|回复: 0

[剧情] 厚牛皮 Thick.Skinned.1989.FRENCH.1080p.AMZN.WEBRip.DDP2.0.x264-Fxe 5.80GB

[复制链接]
蓝光币
894
发表于 2022-7-1 12:39:12 | 显示全部楼层 |阅读模式


◎标  题 厚牛皮
◎译  名 不速之客
◎片  名 Peaux de vaches
◎年  代 1989
◎产  地 法国
◎类  别 剧情
◎语  言 法语
◎上映日期 1989-05-31(法国)
◎IMDb评分 6.8/10 (123人评价)
◎IMDb链接 https://www.imdb.com/title/tt0095842/
◎豆瓣链接 https://movie.douban.com/subject/1958492/
◎片  长 87分钟
◎导  演 帕特里西亚·玛佐 Patricia Mazuy
◎编  剧 帕特里西亚·玛佐 Patricia Mazuy
◎演  员 桑德里娜·博内尔 Sandrine Bonnaire
       让-弗朗索瓦·斯泰弗南 Jean-François Stévenin
       雅克·斯皮埃塞 Jacques Spiesser
       皮埃尔·福格特 Pierre Forget
       让-佛朗索瓦·戈马特 Jean-François Gallotte
       莎乐梅·斯蒂文宁 Salomé Stévenin
       拉乌尔·库塔尔 Raoul Coutard
       Sophie Schmit Sophie Schmit
◎简  介

  The film (and the acting) is superbly done, but the story is intense. I like it for its' dark, thick, "Cul du Sac" psychology but it is certainly not for everyone for that very reason. Set in isolated, rural France makes this film all the more desperate.                                       
                                    The film is about strenuous relationships, loyalty - and despair. It is about accepting hardships without really understandin...
  1. Video
  2. ID                                       : 1
  3. Format                                   : AVC
  4. Format/Info                              : Advanced Video Codec
  5. Format profile                           : [email protected]
  6. Format settings                          : CABAC / 4 Ref Frames
  7. Format settings, CABAC                   : Yes
  8. Format settings, Reference frames        : 4 frames
  9. Codec ID                                 : V_MPEG4/ISO/AVC
  10. Duration                                 : 1 h 24 min
  11. Bit rate mode                            : Constant
  12. Bit rate                                 : 10 000 kb/s
  13. Width                                    : 1 792 pixels
  14. Height                                   : 1 080 pixels
  15. Display aspect ratio                     : 5:3
  16. Frame rate mode                          : Constant
  17. Frame rate                               : 25.000 FPS
  18. Color space                              : YUV
  19. Chroma subsampling                       : 4:2:0
  20. Bit depth                                : 8 bits
  21. Scan type                                : Progressive
  22. Bits/(Pixel*Frame)                       : 0.207
  23. Stream size                              : 5.66 GiB (98%)
  24. Default                                  : Yes
  25. Forced                                   : No
  26. Color range                              : Limited
  27. Color primaries                          : BT.709
  28. Transfer characteristics                 : BT.709
  29. Matrix coefficients                      : BT.709
  30. Audio
  31. ID                                       : 2
  32. Format                                   : E-AC-3
  33. Format/Info                              : Enhanced AC-3
  34. Commercial name                          : Dolby Digital Plus
  35. Codec ID                                 : A_EAC3
  36. Duration                                 : 1 h 24 min
  37. Bit rate mode                            : Constant
  38. Bit rate                                 : 224 kb/s
  39. Channel(s)                               : 2 channels
  40. Channel layout                           : L R
  41. Sampling rate                            : 48.0 kHz
  42. Frame rate                               : 31.250 FPS (1536 SPF)
  43. Compression mode                         : Lossy
  44. Stream size                              : 136 MiB (2%)
  45. Language                                 : French
  46. Service kind                             : Complete Main
  47. Default                                  : Yes
  48. Forced                                   : No
  49. Text
  50. ID                                       : 3
  51. Format                                   : UTF-8
  52. Codec ID                                 : S_TEXT/UTF8
  53. Codec ID/Info                            : UTF-8 Plain Text
  54. Duration                                 : 1 h 21 min
  55. Bit rate                                 : 28 b/s
  56. Count of elements                        : 576
  57. Stream size                              : 17.1 KiB (0%)
  58. Language                                 : English
  59. Default                                  : Yes
  60. Forced                                   : No
复制代码







                                       
                                       

                                       
                                       
                                       




回复

使用道具 举报

懒得打字嘛,点击右侧快捷回复 【右侧内容,后台自定义】
您需要登录后才可以回帖 登录 | 立即加入

本版积分规则

Archiver|小黑屋| 蓝光电影网 |网站地图

Copyright © 2021 Comsenz Inc. Powered by 蓝光电影网

蓝光电影网

本站内容由用户自主分享和转载自互联网,转载目的在于传递更多信息,并不代表本网赞同其观点和对其真实性负责。

如有侵权、违反国家法律政策行为,请联系我们,我们会第一时间及时清除和处理!

举报反馈邮箱:[email protected]

快速回复 返回顶部 返回列表