找回密码

查看: 2066|回复: 5

[2160p] 非凡公主 The.Princess.2022.2160p.HULU.WEB-DL.x265.10bit.SDR.DDP5.1-SMURF 9.74GB

[复制链接]
蓝光币
1840
发表于 2022-7-1 13:07:59 | 显示全部楼层 |阅读模式


◎标  题 非凡公主
◎译  名 公主
◎片  名 The Princess
◎年  代 2022
◎产  地 美国
◎类  别 剧情 / 行动 / 惊悚 / 奇异
◎语  言 英语
◎上映日期 2022-07-01(美国收集)
◎IMDb链接 https://www.imdb.com/title/tt13406136/
◎豆瓣链接 https://movie.douban.com/subject/35864061/
◎导  演 黎文杰 Le-Van Kiet
◎编  剧 本·卢斯蒂格 Ben Lustig
       杰克·桑顿 Jake Thornton
        Jake Thornton
◎演  员 乔伊·金 Joey King
       吴青芸 Thanh Van Ngo
       伊沃·阿拉科夫 Ivo Arakov
       马丁·塔斯科夫 Martin Taskov
       瓦西尔·托舍夫 Vasil Toshev
       博日达尔·赫里斯托夫 Bozhidar Hristov
       德西·斯拉沃娃 Dessy Slavova
◎简  介

  Joey King饰演一位年轻的王室成员,爱刀剑胜过王冠,她必须从无情的雇佣兵手中拯救王国。
  1. Video
  2. ID                                       : 1
  3. Format                                   : HEVC
  4. Format/Info                              : High Efficiency Video Coding
  5. Format profile                           : Main [email protected]@Main
  6. Codec ID                                 : V_MPEGH/ISO/HEVC
  7. Duration                                 : 1 h 34 min
  8. Bit rate                                 : 14.6 Mb/s
  9. Width                                    : 3 840 pixels
  10. Height                                   : 2 160 pixels
  11. Display aspect ratio                     : 16:9
  12. Frame rate mode                          : Constant
  13. Frame rate                               : 24.000 FPS
  14. Color space                              : YUV
  15. Chroma subsampling                       : 4:2:0
  16. Bit depth                                : 10 bits
  17. Bits/(Pixel*Frame)                       : 0.073
  18. Stream size                              : 9.57 GiB (98%)
  19. Language                                 : English
  20. Default                                  : Yes
  21. Forced                                   : No
  22. Audio
  23. ID                                       : 2
  24. Format                                   : E-AC-3
  25. Format/Info                              : Enhanced AC-3
  26. Commercial name                          : Dolby Digital Plus
  27. Codec ID                                 : A_EAC3
  28. Duration                                 : 1 h 34 min
  29. Bit rate mode                            : Constant
  30. Bit rate                                 : 256 kb/s
  31. Channel(s)                               : 6 channels
  32. Channel layout                           : L R C LFE Ls Rs
  33. Sampling rate                            : 48.0 kHz
  34. Frame rate                               : 31.250 FPS (1536 SPF)
  35. Compression mode                         : Lossy
  36. Stream size                              : 172 MiB (2%)
  37. Language                                 : English
  38. Service kind                             : Complete Main
  39. Default                                  : Yes
  40. Forced                                   : No
  41. Text #1
  42. ID                                       : 3
  43. Format                                   : UTF-8
  44. Codec ID                                 : S_TEXT/UTF8
  45. Codec ID/Info                            : UTF-8 Plain Text
  46. Duration                                 : 1 h 25 min
  47. Bit rate                                 : 35 b/s
  48. Count of elements                        : 878
  49. Stream size                              : 22.2 KiB (0%)
  50. Title                                    : SDH
  51. Language                                 : English
  52. Default                                  : No
  53. Forced                                   : No
  54. Text #2
  55. ID                                       : 4
  56. Format                                   : UTF-8
  57. Codec ID                                 : S_TEXT/UTF8
  58. Codec ID/Info                            : UTF-8 Plain Text
  59. Duration                                 : 1 h 25 min
  60. Bit rate                                 : 27 b/s
  61. Count of elements                        : 660
  62. Stream size                              : 17.2 KiB (0%)
  63. Language                                 : English
  64. Default                                  : No
  65. Forced                                   : No
  66. Text #3
  67. ID                                       : 5
  68. Format                                   : UTF-8
  69. Codec ID                                 : S_TEXT/UTF8
  70. Codec ID/Info                            : UTF-8 Plain Text
  71. Duration                                 : 1 h 26 min
  72. Bit rate                                 : 33 b/s
  73. Count of elements                        : 839
  74. Stream size                              : 21.1 KiB (0%)
  75. Title                                    : SDH
  76. Language                                 : Spanish
  77. Default                                  : No
  78. Forced                                   : No
  79. Text #4
  80. ID                                       : 6
  81. Format                                   : UTF-8
  82. Codec ID                                 : S_TEXT/UTF8
  83. Codec ID/Info                            : UTF-8 Plain Text
  84. Duration                                 : 1 h 26 min
  85. Bit rate                                 : 25 b/s
  86. Count of elements                        : 622
  87. Stream size                              : 16.1 KiB (0%)
  88. Language                                 : Spanish
  89. Default                                  : No
  90. Forced                                   : No
  91. Menu
  92. 00:00:00.000                             : en:Chapter 01
  93. 01:27:32.190                             : en:Credits
复制代码




                                       
                                       

                                       
                                       
                                       




回复

使用道具 举报

蓝光币
9
发表于 2022-7-1 15:27:52 | 显示全部楼层
Thanks for sharing best movies!!!
回复

使用道具 举报

蓝光币
472
发表于 2022-7-1 22:40:16 | 显示全部楼层
没字幕。难受
回复

使用道具 举报

蓝光币
335
发表于 2022-7-2 10:30:25 | 显示全部楼层
感觉很有意思的电影
回复

使用道具 举报

蓝光币
26
发表于 2022-7-2 16:25:09 | 显示全部楼层
谢谢分享
回复

使用道具 举报

蓝光币
2064
发表于 2022-7-4 13:48:46 | 显示全部楼层
不错,收下了。
回复

使用道具 举报

懒得打字嘛,点击右侧快捷回复 【右侧内容,后台自定义】
您需要登录后才可以回帖 登录 | 立即加入

本版积分规则

Copyright © 2024 Comsenz Inc. Powered by 蓝光电影网

本站内容由用户自主分享和转载自互联网,转载目的在于传递更多信息,并不代表本网赞同其观点和对其真实性负责。

如有侵权、违反国家法律政策行为,请联系我们,我们会第一时间及时清除和处理!

举报反馈邮箱:4k1080.com@gmail.com

快速回复 返回顶部 返回列表