找回密码

蓝光电影网

查看: 48|回复: 0

[剧情] 报丧女妖 Code.Name.Banshee.2022.1080p.WEBRip.DD5.1.x264-CM 4.67GB

[复制链接]
蓝光币
894
发表于 2022-7-1 13:17:54 | 显示全部楼层 |阅读模式


◎标  题 报丧女妖
◎片  名 Banshee
◎年  代 2022
◎产  地 美国
◎类  别 剧情 / 行动 / 惊悚
◎语  言 英语
◎上映日期 2022-07-01(美国)
◎IMDb链接 https://www.imdb.com/title/tt15438542/
◎豆瓣链接 https://movie.douban.com/subject/35760353/
◎导  演 强·基耶斯 Jon Keeyes
◎演  员 安东尼奥·班德拉斯 Antonio Banderas
       杰米·金 Jaime King
       汤米·弗拉纳根 Tommy Flanagan
       凯特·希金斯 Kate Higgins
       韦恩·派尔 Wayne Pyle
       亚历山大·维舍尔鲍默 Aleksander Vayshelboym
◎简  介

  这是一个关于复仇和家庭的复杂故事,报告的是自在职业杀手女妖被杀死父亲的雇佣兵伏击的故事。
  1. Video
  2. ID                                       : 1
  3. Format                                   : AVC
  4. Format/Info                              : Advanced Video Codec
  5. Format profile                           : [email protected]
  6. Format settings                          : CABAC / 5 Ref Frames
  7. Format settings, CABAC                   : Yes
  8. Format settings, Reference frames        : 5 frames
  9. Codec ID                                 : V_MPEG4/ISO/AVC
  10. Duration                                 : 1 h 32 min
  11. Bit rate                                 : 6 815 kb/s
  12. Width                                    : 1 920 pixels
  13. Height                                   : 800 pixels
  14. Display aspect ratio                     : 2.40:1
  15. Frame rate mode                          : Constant
  16. Frame rate                               : 23.976 (24000/1001/189150) FPS
  17. Color space                              : YUV
  18. Chroma subsampling                       : 4:2:0
  19. Bit depth                                : 8 bits
  20. Scan type                                : Progressive
  21. Bits/(Pixel*Frame)                       : 0.185
  22. Stream size                              : 4.42 GiB (95%)
  23. Language                                 : English
  24. Default                                  : Yes
  25. Forced                                   : No
  26. Color range                              : Limited
  27. Color primaries                          : BT.709
  28. Transfer characteristics                 : BT.709
  29. Matrix coefficients                      : BT.709
  30. Audio
  31. ID                                       : 2
  32. Format                                   : AC-3
  33. Format/Info                              : Audio Coding 3
  34. Commercial name                          : Dolby Digital
  35. Codec ID                                 : A_AC3
  36. Duration                                 : 1 h 32 min
  37. Bit rate mode                            : Constant
  38. Bit rate                                 : 384 kb/s
  39. Channel(s)                               : 6 channels
  40. Channel layout                           : L R C LFE Ls Rs
  41. Sampling rate                            : 48.0 kHz
  42. Frame rate                               : 31.250 FPS (1536 SPF)
  43. Compression mode                         : Lossy
  44. Stream size                              : 255 MiB (5%)
  45. Language                                 : English
  46. Service kind                             : Complete Main
  47. Default                                  : Yes
  48. Forced                                   : No
  49. Text #1
  50. ID                                       : 3
  51. Format                                   : UTF-8
  52. Codec ID                                 : S_TEXT/UTF8
  53. Codec ID/Info                            : UTF-8 Plain Text
  54. Duration                                 : 1 h 32 min
  55. Bit rate                                 : 52 b/s
  56. Count of elements                        : 1440
  57. Stream size                              : 35.4 KiB (0%)
  58. Title                                    : SDH
  59. Language                                 : English
  60. Default                                  : No
  61. Forced                                   : No
  62. Text #2
  63. ID                                       : 4
  64. Format                                   : UTF-8
  65. Codec ID                                 : S_TEXT/UTF8
  66. Codec ID/Info                            : UTF-8 Plain Text
  67. Duration                                 : 1 h 32 min
  68. Bit rate                                 : 46 b/s
  69. Count of elements                        : 1257
  70. Stream size                              : 31.5 KiB (0%)
  71. Language                                 : English
  72. Default                                  : No
  73. Forced                                   : No
  74. Menu
  75. 00:00:00.000                             : Chapter 01
  76. 00:06:49.576                             : Chapter 02
  77. 00:13:56.586                             : Chapter 03
  78. 00:21:07.475                             : Chapter 04
  79. 00:32:15.143                             : Chapter 05
  80. 00:41:28.363                             : Chapter 06
  81. 00:51:11.738                             : Chapter 07
  82. 00:58:18.873                             : Chapter 08
  83. 01:05:58.833                             : Chapter 09
  84. 01:16:05.774                             : Chapter 10
  85. 01:28:14.044                             : Chapter 11
复制代码







                                       
                                       

                                       
                                       
                                       




回复

使用道具 举报

懒得打字嘛,点击右侧快捷回复 【右侧内容,后台自定义】
您需要登录后才可以回帖 登录 | 立即加入

本版积分规则

Archiver|小黑屋| 蓝光电影网 |网站地图

Copyright © 2021 Comsenz Inc. Powered by 蓝光电影网

蓝光电影网

本站内容由用户自主分享和转载自互联网,转载目的在于传递更多信息,并不代表本网赞同其观点和对其真实性负责。

如有侵权、违反国家法律政策行为,请联系我们,我们会第一时间及时清除和处理!

举报反馈邮箱:[email protected]

快速回复 返回顶部 返回列表