找回密码

蓝光电影网

查看: 89|回复: 0

[科幻] 绝命空间站 Rubikon.2022.1080p.WEBRip.DD5.1.x264-CM 5.48GB

[复制链接]
蓝光币
894
发表于 2022-7-1 13:15:06 | 显示全部楼层 |阅读模式


◎标  题 绝命空间站
◎片  名 Rubikon
◎年  代 2022
◎产  地 奥天时
◎类  别 科幻 / 惊悚
◎语  言 英语
◎上映日期 2022-07-01(美国) / 2022-09-15(奥天时)
◎IMDb评分 7.3/10 (26人评价)
◎IMDb链接 https://www.imdb.com/title/tt13829262/
◎豆瓣链接 https://movie.douban.com/subject/35524221/
◎演  员 乔治·布莱顿 George Blagden
       马克·伊瓦涅 Mark Ivanir
       莫妮卡·布廷格 Monika Buttinger
◎简  介

  2056 - Company soldier Hannah and scientists Gavin and Dimitri are on board of RUBIKON space station researching an algae project aimed to provide humanity with a permanent supply of oxygen and food. But all of a sudden the earth beneath them disappears in a brown, toxic fog and all contacts are broken - are they the last survivors? Should they leave the safe station, risk thei...
  1. Video
  2. ID                                       : 1
  3. Format                                   : AVC
  4. Format/Info                              : Advanced Video Codec
  5. Format profile                           : [email protected]
  6. Format settings                          : CABAC / 5 Ref Frames
  7. Format settings, CABAC                   : Yes
  8. Format settings, Reference frames        : 5 frames
  9. Codec ID                                 : V_MPEG4/ISO/AVC
  10. Duration                                 : 1 h 49 min
  11. Bit rate                                 : 6 765 kb/s
  12. Width                                    : 1 912 pixels
  13. Height                                   : 800 pixels
  14. Display aspect ratio                     : 2.40:1
  15. Frame rate mode                          : Constant
  16. Frame rate                               : 24.000 FPS
  17. Color space                              : YUV
  18. Chroma subsampling                       : 4:2:0
  19. Bit depth                                : 8 bits
  20. Scan type                                : Progressive
  21. Bits/(Pixel*Frame)                       : 0.184
  22. Stream size                              : 5.18 GiB (95%)
  23. Language                                 : English
  24. Default                                  : Yes
  25. Forced                                   : No
  26. Color range                              : Limited
  27. Color primaries                          : BT.709
  28. Transfer characteristics                 : BT.709
  29. Matrix coefficients                      : BT.709
  30. Audio
  31. ID                                       : 2
  32. Format                                   : AC-3
  33. Format/Info                              : Audio Coding 3
  34. Commercial name                          : Dolby Digital
  35. Codec ID                                 : A_AC3
  36. Duration                                 : 1 h 49 min
  37. Bit rate mode                            : Constant
  38. Bit rate                                 : 384 kb/s
  39. Channel(s)                               : 6 channels
  40. Channel layout                           : L R C LFE Ls Rs
  41. Sampling rate                            : 48.0 kHz
  42. Frame rate                               : 31.250 FPS (1536 SPF)
  43. Compression mode                         : Lossy
  44. Stream size                              : 301 MiB (5%)
  45. Language                                 : English
  46. Service kind                             : Complete Main
  47. Default                                  : Yes
  48. Forced                                   : No
  49. Text #1
  50. ID                                       : 3
  51. Format                                   : UTF-8
  52. Codec ID                                 : S_TEXT/UTF8
  53. Codec ID/Info                            : UTF-8 Plain Text
  54. Duration                                 : 1 h 35 min
  55. Bit rate                                 : 2 b/s
  56. Count of elements                        : 66
  57. Stream size                              : 1.80 KiB (0%)
  58. Title                                    : Forced
  59. Language                                 : English
  60. Default                                  : Yes
  61. Forced                                   : Yes
  62. Text #2
  63. ID                                       : 4
  64. Format                                   : UTF-8
  65. Codec ID                                 : S_TEXT/UTF8
  66. Codec ID/Info                            : UTF-8 Plain Text
  67. Duration                                 : 1 h 47 min
  68. Bit rate                                 : 50 b/s
  69. Count of elements                        : 1292
  70. Stream size                              : 39.5 KiB (0%)
  71. Title                                    : SDH
  72. Language                                 : English
  73. Default                                  : No
  74. Forced                                   : No
  75. Text #3
  76. ID                                       : 5
  77. Format                                   : UTF-8
  78. Codec ID                                 : S_TEXT/UTF8
  79. Codec ID/Info                            : UTF-8 Plain Text
  80. Duration                                 : 1 h 43 min
  81. Bit rate                                 : 47 b/s
  82. Count of elements                        : 1158
  83. Stream size                              : 35.6 KiB (0%)
  84. Language                                 : English
  85. Default                                  : No
  86. Forced                                   : No
  87. Menu
  88. 00:00:00.000                             : Chapter 01
  89. 00:10:50.000                             : Chapter 02
  90. 00:20:18.660                             : Chapter 03
  91. 00:30:07.370                             : Chapter 04
  92. 00:39:59.660                             : Chapter 05
  93. 00:50:23.120                             : Chapter 06
  94. 00:59:37.910                             : Chapter 07
  95. 01:11:33.160                             : Chapter 08
  96. 01:20:10.160                             : Chapter 09
  97. 01:31:39.700                             : Chapter 10
  98. 01:39:53.450                             : Chapter 11
  99. 01:46:11.330                             : Chapter 12
复制代码






                                       
                                       

                                       
                                       
                                       




回复

使用道具 举报

懒得打字嘛,点击右侧快捷回复 【右侧内容,后台自定义】
您需要登录后才可以回帖 登录 | 立即加入

本版积分规则

Archiver|小黑屋| 蓝光电影网 |网站地图

Copyright © 2021 Comsenz Inc. Powered by 蓝光电影网

蓝光电影网

本站内容由用户自主分享和转载自互联网,转载目的在于传递更多信息,并不代表本网赞同其观点和对其真实性负责。

如有侵权、违反国家法律政策行为,请联系我们,我们会第一时间及时清除和处理!

举报反馈邮箱:[email protected]

快速回复 返回顶部 返回列表