找回密码

蓝光电影网

查看: 124|回复: 1

[科幻] 神秘博士与戴立克 Dr.Who.and.the.Daleks.1965.REMASTERED.1080p.BluRay.x264-OLDTiME 11.69GB

[复制链接]
蓝光币
894
发表于 2022-7-2 10:22:15 | 显示全部楼层 |阅读模式


◎标  题 奥秘博士与戴立克
◎译  名 怪博士天外降魔(港) / Doctor Who And The Daleks
◎片  名 Dr. Who and the Daleks
◎年  代 1965
◎产  地 英国
◎类  别 科幻
◎语  言 英语
◎上映日期 1965-08-23
◎IMDb评分 5.6/10 (4548人评价)
◎IMDb链接 https://www.imdb.com/title/tt0059126/
◎豆瓣链接 https://movie.douban.com/subject/2567423/
◎片  长 82 分钟
◎导  演 戈登·弗莱明 Gordon Flemyng
◎编  剧 特瑞·内辛 Terry Nation
       米尔顿·苏博茨基 Milton Subotsky
       西德尼·纽曼 Sydney Newman
◎演  员 彼得·库欣 Peter Cushing
       罗伊·卡斯尔 Roy Castle
       珍妮·林登 Jennie Linden
       Roberta Tovey Roberta Tovey
       巴里·英厄姆 Barrie Ingham
       杰弗里·图恩 Geoffrey Toone
       Michael Coles Michael Coles
       Jane Lumb Jane Lumb
       Mick Dillon Mick Dillon
       Kevin Manser Kevin Manser
       Gerald Taylor Gerald Taylor
       Mike Reid Mike Reid
       Peter Hawkins Peter Hawkins
       Max Rosenberg Max Rosenberg
       米尔顿·苏博茨基 Milton Subotsky
       Malcolm Lockyer Malcolm Lockyer
       John Wilcox John Wilcox
       奥斯瓦尔德·哈芬里希特 Oswald Hafenrichter
       Bill Constable Bill Constable
       斯科特·斯利蒙 Scott Slimon
       Henry Montsash Henry Montsash
◎简  介

  An eccentric inventor and his companions travel in his Tardis to the Planet Skaro and battle the evil menace of the Daleks.
  1. Video
  2. ID                                       : 1
  3. Format                                   : AVC
  4. Format/Info                              : Advanced Video Codec
  5. Format profile                           : [email protected]
  6. Format settings                          : CABAC / 5 Ref Frames
  7. Format settings, CABAC                   : Yes
  8. Format settings, Reference frames        : 5 frames
  9. Codec ID                                 : V_MPEG4/ISO/AVC
  10. Duration                                 : 1 h 22 min
  11. Bit rate                                 : 19.2 Mb/s
  12. Width                                    : 1 920 pixels
  13. Height                                   : 816 pixels
  14. Display aspect ratio                     : 2.35:1
  15. Frame rate mode                          : Constant
  16. Frame rate                               : 24.000 FPS
  17. Color space                              : YUV
  18. Chroma subsampling                       : 4:2:0
  19. Bit depth                                : 8 bits
  20. Scan type                                : Progressive
  21. Bits/(Pixel*Frame)                       : 0.510
  22. Stream size                              : 11.1 GiB (95%)
  23. Writing library                          : x264 core 164 r3095 baee400
  24. Encoding settings                        : cabac=1 / ref=5 / deblock=1:-3:-3 / analyse=0x3:0x133 / me=umh / subme=9 / psy=1 / psy_rd=1.00:0.00 / mixed_ref=1 / me_range=16 / chroma_me=1 / trellis=2 / 8x8dct=1 / cqm=0 / deadzone=21,11 / fast_pskip=0 / chroma_qp_offset=-2 / threads=24 / lookahead_threads=2 / sliced_threads=0 / nr=0 / decimate=1 / interlaced=0 / bluray_compat=0 / constrained_intra=0 / bframes=3 / b_pyramid=2 / b_adapt=2 / b_bias=0 / direct=3 / weightb=1 / open_gop=0 / weightp=2 / keyint=250 / keyint_min=24 / scenecut=40 / intra_refresh=0 / rc_lookahead=60 / rc=crf / mbtree=1 / crf=18.8 / qcomp=0.60 / qpmin=0 / qpmax=69 / qpstep=4 / ip_ratio=1.40 / aq=1:1.00
  25. Language                                 : English
  26. Default                                  : Yes
  27. Forced                                   : No

  28. Audio #1
  29. ID                                       : 2
  30. Format                                   : FLAC
  31. Format/Info                              : Free Lossless Audio Codec
  32. Codec ID                                 : A_FLAC
  33. Duration                                 : 1 h 22 min
  34. Bit rate mode                            : Variable
  35. Bit rate                                 : 759 kb/s
  36. Channel(s)                               : 2 channels
  37. Channel layout                           : L R
  38. Sampling rate                            : 48.0 kHz
  39. Frame rate                               : 11.719 FPS (4096 SPF)
  40. Bit depth                                : 24 bits
  41. Compression mode                         : Lossless
  42. Stream size                              : 450 MiB (4%)
  43. Writing library                          : libFLAC 1.3.2 (UTC 2017-01-01)
  44. Language                                 : English
  45. Default                                  : Yes
  46. Forced                                   : No

  47. Audio #2
  48. ID                                       : 3
  49. Format                                   : AAC LC
  50. Format/Info                              : Advanced Audio Codec Low Complexity
  51. Codec ID                                 : A_AAC-2
  52. Duration                                 : 1 h 22 min
  53. Bit rate                                 : 84.7 kb/s
  54. Channel(s)                               : 2 channels
  55. Channel layout                           : L R
  56. Sampling rate                            : 48.0 kHz
  57. Frame rate                               : 46.875 FPS (1024 SPF)
  58. Compression mode                         : Lossy
  59. Delay relative to video                  : 9 ms
  60. Stream size                              : 50.2 MiB (0%)
  61. Title                                    : commentary
  62. Language                                 : English
  63. Default                                  : No
  64. Forced                                   : No

  65. Audio #3
  66. ID                                       : 4
  67. Format                                   : AAC LC
  68. Format/Info                              : Advanced Audio Codec Low Complexity
  69. Codec ID                                 : A_AAC-2
  70. Duration                                 : 1 h 22 min
  71. Bit rate                                 : 87.8 kb/s
  72. Channel(s)                               : 2 channels
  73. Channel layout                           : L R
  74. Sampling rate                            : 48.0 kHz
  75. Frame rate                               : 46.875 FPS (1024 SPF)
  76. Compression mode                         : Lossy
  77. Delay relative to video                  : 9 ms
  78. Stream size                              : 52.1 MiB (0%)
  79. Title                                    : commentary
  80. Language                                 : English
  81. Default                                  : No
  82. Forced                                   : No

  83. Text #1
  84. ID                                       : 5
  85. Format                                   : PGS
  86. Muxing mode                              : zlib
  87. Codec ID                                 : S_HDMV/PGS
  88. Codec ID/Info                            : Picture based subtitle format used on BDs/HD-DVDs
  89. Duration                                 : 1 h 22 min
  90. Bit rate                                 : 27.7 kb/s
  91. Count of elements                        : 1656
  92. Stream size                              : 16.3 MiB (0%)
  93. Language                                 : English
  94. Default                                  : No
  95. Forced                                   : No

  96. Text #2
  97. ID                                       : 6
  98. Format                                   : PGS
  99. Muxing mode                              : zlib
  100. Codec ID                                 : S_HDMV/PGS
  101. Codec ID/Info                            : Picture based subtitle format used on BDs/HD-DVDs
  102. Duration                                 : 1 h 22 min
  103. Bit rate                                 : 82.8 kb/s
  104. Count of elements                        : 3838
  105. Stream size                              : 49.0 MiB (0%)
  106. Language                                 : English
  107. Default                                  : No
  108. Forced                                   : No

  109. Text #3
  110. ID                                       : 7
  111. Format                                   : PGS
  112. Muxing mode                              : zlib
  113. Codec ID                                 : S_HDMV/PGS
  114. Codec ID/Info                            : Picture based subtitle format used on BDs/HD-DVDs
  115. Duration                                 : 1 h 22 min
  116. Bit rate                                 : 82.6 kb/s
  117. Count of elements                        : 3788
  118. Stream size                              : 48.6 MiB (0%)
  119. Language                                 : English
  120. Default                                  : No
  121. Forced                                   : No

  122. Text #4
  123. ID                                       : 8
  124. Format                                   : PGS
  125. Muxing mode                              : zlib
  126. Codec ID                                 : S_HDMV/PGS
  127. Codec ID/Info                            : Picture based subtitle format used on BDs/HD-DVDs
  128. Duration                                 : 1 h 22 min
  129. Bit rate                                 : 20.9 kb/s
  130. Count of elements                        : 1544
  131. Stream size                              : 12.4 MiB (0%)
  132. Language                                 : French
  133. Default                                  : No
  134. Forced                                   : No

  135. Text #5
  136. ID                                       : 9
  137. Format                                   : PGS
  138. Muxing mode                              : zlib
  139. Codec ID                                 : S_HDMV/PGS
  140. Codec ID/Info                            : Picture based subtitle format used on BDs/HD-DVDs
  141. Duration                                 : 1 h 22 min
  142. Bit rate                                 : 26.8 kb/s
  143. Count of elements                        : 1530
  144. Stream size                              : 15.9 MiB (0%)
  145. Language                                 : German
  146. Default                                  : No
  147. Forced                                   : No

  148. Text #6
  149. ID                                       : 10
  150. Format                                   : PGS
  151. Muxing mode                              : zlib
  152. Codec ID                                 : S_HDMV/PGS
  153. Codec ID/Info                            : Picture based subtitle format used on BDs/HD-DVDs
  154. Duration                                 : 2 min 9 s
  155. Bit rate                                 : 5 019 b/s
  156. Count of elements                        : 6
  157. Stream size                              : 79.2 KiB (0%)
  158. Language                                 : French
  159. Default                                  : No
  160. Forced                                   : No

  161. Text #7
  162. ID                                       : 11
  163. Format                                   : PGS
  164. Muxing mode                              : zlib
  165. Codec ID                                 : S_HDMV/PGS
  166. Codec ID/Info                            : Picture based subtitle format used on BDs/HD-DVDs
  167. Duration                                 : 2 min 17 s
  168. Bit rate                                 : 6 571 b/s
  169. Count of elements                        : 8
  170. Stream size                              : 110 KiB (0%)
  171. Language                                 : German
  172. Default                                  : No
  173. Forced                                   : No

  174. Menu
  175. 00:00:00.000                             : en:Chapter 01
  176. 00:04:39.125                             : en:Chapter 02
  177. 00:12:19.750                             : en:Chapter 03
  178. 00:19:20.167                             : en:Chapter 04
  179. 00:25:59.708                             : en:Chapter 05
  180. 00:33:42.792                             : en:Chapter 06
  181. 00:38:17.375                             : en:Chapter 07
  182. 00:43:31.667                             : en:Chapter 08
  183. 00:50:57.208                             : en:Chapter 09
  184. 00:59:43.292                             : en:Chapter 10
  185. 01:08:04.708                             : en:Chapter 11
  186. 01:15:50.500                             : en:Chapter 12
复制代码




                                       
                                       

                                       
                                       
                                       




回复

使用道具 举报

蓝光币
60
发表于 2022-7-2 22:39:48 | 显示全部楼层

这东西我收了!
回复 支持 反对

使用道具 举报

懒得打字嘛,点击右侧快捷回复 【右侧内容,后台自定义】
您需要登录后才可以回帖 登录 | 立即加入

本版积分规则

Archiver|小黑屋| 蓝光电影网 |网站地图

Copyright © 2021 Comsenz Inc. Powered by 蓝光电影网

蓝光电影网

本站内容由用户自主分享和转载自互联网,转载目的在于传递更多信息,并不代表本网赞同其观点和对其真实性负责。

如有侵权、违反国家法律政策行为,请联系我们,我们会第一时间及时清除和处理!

举报反馈邮箱:[email protected]

快速回复 返回顶部 返回列表