找回密码

查看: 1458|回复: 0

[2160p] 非凡公主 The.Princess.2022.2160p.DSNP.WEB-DL.x265.10bit.HDR.DDP5.1-CM 10.55GB

[复制链接]
蓝光币
1840
发表于 2022-7-3 11:47:41 | 显示全部楼层 |阅读模式


◎标  题 非凡公主
◎译  名 公主
◎片  名 The Princess
◎年  代 2022
◎产  地 美国
◎类  别 剧情 / 行动 / 惊悚 / 奇异
◎语  言 英语
◎上映日期 2022-07-01(美国收集)
◎IMDb评分 5.3/10 (1561人评价)
◎IMDb链接 https://www.imdb.com/title/tt13406136/
◎豆瓣链接 https://movie.douban.com/subject/35864061/
◎导  演 黎文杰 Le-Van Kiet
◎编  剧 本·卢斯蒂格 Ben Lustig
       杰克·桑顿 Jake Thornton
        Jake Thornton
◎演  员 乔伊·金 Joey King
       吴青芸 Thanh Van Ngo
       伊沃·阿拉科夫 Ivo Arakov
       马丁·塔斯科夫 Martin Taskov
       瓦西尔·托舍夫 Vasil Toshev
       博日达尔·赫里斯托夫 Bozhidar Hristov
       德西·斯拉沃娃 Dessy Slavova
◎简  介

  Joey King饰演一位年轻的王室成员,爱刀剑胜过王冠,她必须从无情的雇佣兵手中拯救王国。
  1. Video
  2. ID                                       : 1
  3. Format                                   : HEVC
  4. Format/Info                              : High Efficiency Video Coding
  5. Format profile                           : Main [email protected]@High
  6. HDR format                               : SMPTE ST 2086, HDR10 compatible
  7. Codec ID                                 : V_MPEGH/ISO/HEVC
  8. Duration                                 : 1 h 33 min
  9. Bit rate                                 : 15.8 Mb/s
  10. Width                                    : 3 840 pixels
  11. Height                                   : 2 160 pixels
  12. Display aspect ratio                     : 16:9
  13. Frame rate mode                          : Constant
  14. Frame rate                               : 24.000 FPS
  15. Color space                              : YUV
  16. Chroma subsampling                       : 4:2:0
  17. Bit depth                                : 10 bits
  18. Bits/(Pixel*Frame)                       : 0.079
  19. Stream size                              : 10.4 GiB (98%)
  20. Language                                 : English
  21. Default                                  : Yes
  22. Forced                                   : No
  23. Color range                              : Limited
  24. Color primaries                          : BT.2020
  25. Transfer characteristics                 : PQ
  26. Matrix coefficients                      : BT.2020 non-constant
  27. Mastering display color primaries        : Display P3
  28. Mastering display luminance              : min: 0.0001 cd/m2, max: 1000 cd/m2

  29. Audio
  30. ID                                       : 2
  31. Format                                   : E-AC-3
  32. Format/Info                              : Enhanced AC-3
  33. Commercial name                          : Dolby Digital Plus
  34. Codec ID                                 : A_EAC3
  35. Duration                                 : 1 h 33 min
  36. Bit rate mode                            : Constant
  37. Bit rate                                 : 256 kb/s
  38. Channel(s)                               : 6 channels
  39. Channel layout                           : L R C LFE Ls Rs
  40. Sampling rate                            : 48.0 kHz
  41. Frame rate                               : 31.250 FPS (1536 SPF)
  42. Compression mode                         : Lossy
  43. Stream size                              : 172 MiB (2%)
  44. Language                                 : English
  45. Service kind                             : Complete Main
  46. Default                                  : Yes
  47. Forced                                   : No

  48. Text #1
  49. ID                                       : 3
  50. Format                                   : UTF-8
  51. Codec ID                                 : S_TEXT/UTF8
  52. Codec ID/Info                            : UTF-8 Plain Text
  53. Duration                                 : 1 h 25 min
  54. Bit rate                                 : 35 b/s
  55. Count of elements                        : 878
  56. Stream size                              : 22.2 KiB (0%)
  57. Title                                    : SDH
  58. Language                                 : English
  59. Default                                  : No
  60. Forced                                   : No

  61. Text #2
  62. ID                                       : 4
  63. Format                                   : UTF-8
  64. Codec ID                                 : S_TEXT/UTF8
  65. Codec ID/Info                            : UTF-8 Plain Text
  66. Duration                                 : 1 h 25 min
  67. Bit rate                                 : 27 b/s
  68. Count of elements                        : 660
  69. Stream size                              : 17.2 KiB (0%)
  70. Language                                 : English
  71. Default                                  : No
  72. Forced                                   : No

  73. Text #3
  74. ID                                       : 5
  75. Format                                   : UTF-8
  76. Codec ID                                 : S_TEXT/UTF8
  77. Codec ID/Info                            : UTF-8 Plain Text
  78. Duration                                 : 1 h 32 min
  79. Bit rate                                 : 23 b/s
  80. Count of elements                        : 647
  81. Stream size                              : 15.8 KiB (0%)
  82. Language                                 : Czech
  83. Default                                  : No
  84. Forced                                   : No

  85. Text #4
  86. ID                                       : 6
  87. Format                                   : UTF-8
  88. Codec ID                                 : S_TEXT/UTF8
  89. Codec ID/Info                            : UTF-8 Plain Text
  90. Duration                                 : 1 h 31 min
  91. Bit rate                                 : 24 b/s
  92. Count of elements                        : 616
  93. Stream size                              : 16.6 KiB (0%)
  94. Language                                 : Danish
  95. Default                                  : No
  96. Forced                                   : No

  97. Text #5
  98. ID                                       : 7
  99. Format                                   : UTF-8
  100. Codec ID                                 : S_TEXT/UTF8
  101. Codec ID/Info                            : UTF-8 Plain Text
  102. Duration                                 : 1 h 31 min
  103. Bit rate                                 : 24 b/s
  104. Count of elements                        : 635
  105. Stream size                              : 16.4 KiB (0%)
  106. Language                                 : German
  107. Default                                  : No
  108. Forced                                   : No

  109. Text #6
  110. ID                                       : 8
  111. Format                                   : UTF-8
  112. Codec ID                                 : S_TEXT/UTF8
  113. Codec ID/Info                            : UTF-8 Plain Text
  114. Duration                                 : 1 h 32 min
  115. Bit rate                                 : 41 b/s
  116. Count of elements                        : 664
  117. Stream size                              : 28.6 KiB (0%)
  118. Language                                 : Greek
  119. Default                                  : No
  120. Forced                                   : No

  121. Text #7
  122. ID                                       : 9
  123. Format                                   : UTF-8
  124. Codec ID                                 : S_TEXT/UTF8
  125. Codec ID/Info                            : UTF-8 Plain Text
  126. Duration                                 : 1 h 32 min
  127. Bit rate                                 : 22 b/s
  128. Count of elements                        : 663
  129. Stream size                              : 15.5 KiB (0%)
  130. Language                                 : Spanish
  131. Default                                  : No
  132. Forced                                   : No

  133. Text #8
  134. ID                                       : 10
  135. Format                                   : UTF-8
  136. Codec ID                                 : S_TEXT/UTF8
  137. Codec ID/Info                            : UTF-8 Plain Text
  138. Duration                                 : 1 h 32 min
  139. Bit rate                                 : 23 b/s
  140. Count of elements                        : 633
  141. Stream size                              : 16.1 KiB (0%)
  142. Title                                    : Latin American
  143. Language                                 : Spanish
  144. Default                                  : No
  145. Forced                                   : No

  146. Text #9
  147. ID                                       : 11
  148. Format                                   : UTF-8
  149. Codec ID                                 : S_TEXT/UTF8
  150. Codec ID/Info                            : UTF-8 Plain Text
  151. Duration                                 : 1 h 31 min
  152. Bit rate                                 : 25 b/s
  153. Count of elements                        : 663
  154. Stream size                              : 16.9 KiB (0%)
  155. Language                                 : Finnish
  156. Default                                  : No
  157. Forced                                   : No

  158. Text #10
  159. ID                                       : 12
  160. Format                                   : UTF-8
  161. Codec ID                                 : S_TEXT/UTF8
  162. Codec ID/Info                            : UTF-8 Plain Text
  163. Duration                                 : 1 h 32 min
  164. Bit rate                                 : 25 b/s
  165. Count of elements                        : 658
  166. Stream size                              : 17.1 KiB (0%)
  167. Language                                 : French
  168. Default                                  : No
  169. Forced                                   : No

  170. Text #11
  171. ID                                       : 13
  172. Format                                   : UTF-8
  173. Codec ID                                 : S_TEXT/UTF8
  174. Codec ID/Info                            : UTF-8 Plain Text
  175. Duration                                 : 1 h 32 min
  176. Bit rate                                 : 23 b/s
  177. Count of elements                        : 666
  178. Stream size                              : 16.1 KiB (0%)
  179. Language                                 : Hungarian
  180. Default                                  : No
  181. Forced                                   : No

  182. Text #12
  183. ID                                       : 14
  184. Format                                   : UTF-8
  185. Codec ID                                 : S_TEXT/UTF8
  186. Codec ID/Info                            : UTF-8 Plain Text
  187. Duration                                 : 1 h 31 min
  188. Bit rate                                 : 23 b/s
  189. Count of elements                        : 666
  190. Stream size                              : 15.9 KiB (0%)
  191. Language                                 : Italian
  192. Default                                  : No
  193. Forced                                   : No

  194. Text #13
  195. ID                                       : 15
  196. Format                                   : UTF-8
  197. Codec ID                                 : S_TEXT/UTF8
  198. Codec ID/Info                            : UTF-8 Plain Text
  199. Duration                                 : 1 h 32 min
  200. Bit rate                                 : 21 b/s
  201. Count of elements                        : 629
  202. Stream size                              : 14.4 KiB (0%)
  203. Language                                 : Japanese
  204. Default                                  : No
  205. Forced                                   : No

  206. Text #14
  207. ID                                       : 16
  208. Format                                   : UTF-8
  209. Codec ID                                 : S_TEXT/UTF8
  210. Codec ID/Info                            : UTF-8 Plain Text
  211. Duration                                 : 1 h 32 min
  212. Bit rate                                 : 27 b/s
  213. Count of elements                        : 666
  214. Stream size                              : 18.7 KiB (0%)
  215. Language                                 : Korean
  216. Default                                  : No
  217. Forced                                   : No

  218. Text #15
  219. ID                                       : 17
  220. Format                                   : UTF-8
  221. Codec ID                                 : S_TEXT/UTF8
  222. Codec ID/Info                            : UTF-8 Plain Text
  223. Duration                                 : 1 h 31 min
  224. Bit rate                                 : 23 b/s
  225. Count of elements                        : 544
  226. Stream size                              : 15.8 KiB (0%)
  227. Language                                 : Dutch
  228. Default                                  : No
  229. Forced                                   : No

  230. Text #16
  231. ID                                       : 18
  232. Format                                   : UTF-8
  233. Codec ID                                 : S_TEXT/UTF8
  234. Codec ID/Info                            : UTF-8 Plain Text
  235. Duration                                 : 1 h 31 min
  236. Bit rate                                 : 25 b/s
  237. Count of elements                        : 507
  238. Stream size                              : 16.9 KiB (0%)
  239. Language                                 : Norwegian
  240. Default                                  : No
  241. Forced                                   : No

  242. Text #17
  243. ID                                       : 19
  244. Format                                   : UTF-8
  245. Codec ID                                 : S_TEXT/UTF8
  246. Codec ID/Info                            : UTF-8 Plain Text
  247. Duration                                 : 1 h 32 min
  248. Bit rate                                 : 23 b/s
  249. Count of elements                        : 655
  250. Stream size                              : 16.3 KiB (0%)
  251. Language                                 : Polish
  252. Default                                  : No
  253. Forced                                   : No

  254. Text #18
  255. ID                                       : 20
  256. Format                                   : UTF-8
  257. Codec ID                                 : S_TEXT/UTF8
  258. Codec ID/Info                            : UTF-8 Plain Text
  259. Duration                                 : 1 h 32 min
  260. Bit rate                                 : 23 b/s
  261. Count of elements                        : 663
  262. Stream size                              : 15.7 KiB (0%)
  263. Language                                 : Portuguese
  264. Default                                  : No
  265. Forced                                   : No

  266. Text #19
  267. ID                                       : 21
  268. Format                                   : UTF-8
  269. Codec ID                                 : S_TEXT/UTF8
  270. Codec ID/Info                            : UTF-8 Plain Text
  271. Duration                                 : 1 h 32 min
  272. Bit rate                                 : 23 b/s
  273. Count of elements                        : 661
  274. Stream size                              : 15.9 KiB (0%)
  275. Title                                    : Brazilian
  276. Language                                 : Portuguese
  277. Default                                  : No
  278. Forced                                   : No

  279. Text #20
  280. ID                                       : 22
  281. Format                                   : UTF-8
  282. Codec ID                                 : S_TEXT/UTF8
  283. Codec ID/Info                            : UTF-8 Plain Text
  284. Duration                                 : 1 h 32 min
  285. Bit rate                                 : 23 b/s
  286. Count of elements                        : 594
  287. Stream size                              : 16.3 KiB (0%)
  288. Language                                 : Romanian
  289. Default                                  : No
  290. Forced                                   : No

  291. Text #21
  292. ID                                       : 23
  293. Format                                   : UTF-8
  294. Codec ID                                 : S_TEXT/UTF8
  295. Codec ID/Info                            : UTF-8 Plain Text
  296. Duration                                 : 1 h 32 min
  297. Bit rate                                 : 23 b/s
  298. Count of elements                        : 664
  299. Stream size                              : 16.3 KiB (0%)
  300. Language                                 : Slovak
  301. Default                                  : No
  302. Forced                                   : No

  303. Text #22
  304. ID                                       : 24
  305. Format                                   : UTF-8
  306. Codec ID                                 : S_TEXT/UTF8
  307. Codec ID/Info                            : UTF-8 Plain Text
  308. Duration                                 : 1 h 31 min
  309. Bit rate                                 : 25 b/s
  310. Count of elements                        : 649
  311. Stream size                              : 17.0 KiB (0%)
  312. Language                                 : Swedish
  313. Default                                  : No
  314. Forced                                   : No

  315. Text #23
  316. ID                                       : 25
  317. Format                                   : UTF-8
  318. Codec ID                                 : S_TEXT/UTF8
  319. Codec ID/Info                            : UTF-8 Plain Text
  320. Duration                                 : 1 h 32 min
  321. Bit rate                                 : 24 b/s
  322. Count of elements                        : 666
  323. Stream size                              : 17.0 KiB (0%)
  324. Language                                 : Turkish
  325. Default                                  : No
  326. Forced                                   : No

  327. Text #24
  328. ID                                       : 26
  329. Format                                   : UTF-8
  330. Codec ID                                 : S_TEXT/UTF8
  331. Codec ID/Info                            : UTF-8 Plain Text
  332. Duration                                 : 1 h 32 min
  333. Bit rate                                 : 21 b/s
  334. Count of elements                        : 664
  335. Stream size                              : 14.5 KiB (0%)
  336. Title                                    : Hong Kong
  337. Language                                 : Chinese
  338. Default                                  : No
  339. Forced                                   : No

  340. Text #25
  341. ID                                       : 27
  342. Format                                   : UTF-8
  343. Codec ID                                 : S_TEXT/UTF8
  344. Codec ID/Info                            : UTF-8 Plain Text
  345. Duration                                 : 1 h 32 min
  346. Bit rate                                 : 22 b/s
  347. Count of elements                        : 667
  348. Stream size                              : 15.3 KiB (0%)
  349. Title                                    : Simplified
  350. Language                                 : Chinese
  351. Default                                  : No
  352. Forced                                   : No

  353. Text #26
  354. ID                                       : 28
  355. Format                                   : UTF-8
  356. Codec ID                                 : S_TEXT/UTF8
  357. Codec ID/Info                            : UTF-8 Plain Text
  358. Duration                                 : 1 h 32 min
  359. Bit rate                                 : 23 b/s
  360. Count of elements                        : 667
  361. Stream size                              : 15.8 KiB (0%)
  362. Title                                    : Traditional
  363. Language                                 : Chinese
  364. Default                                  : No
  365. Forced                                   : No

  366. Menu
  367. 01:27:45.583                             : en:Credits
复制代码




                                       
                                       

                                       
                                       
                                       




回复

使用道具 举报

懒得打字嘛,点击右侧快捷回复 【右侧内容,后台自定义】
您需要登录后才可以回帖 登录 | 立即加入

本版积分规则

Copyright © 2024 Comsenz Inc. Powered by 蓝光电影网

本站内容由用户自主分享和转载自互联网,转载目的在于传递更多信息,并不代表本网赞同其观点和对其真实性负责。

如有侵权、违反国家法律政策行为,请联系我们,我们会第一时间及时清除和处理!

举报反馈邮箱:4k1080.com@gmail.com

快速回复 返回顶部 返回列表