找回密码

蓝光电影网

查看: 1945|回复: 8

[2160p] 非凡公主 The.Princess.2022.2160p.DSNP.WEB-DL.DDP5.1.DV.MKV.x265-RUMOUR 10.90GB

[复制链接]
蓝光币
1704
发表于 2022-7-3 12:29:54 | 显示全部楼层 |阅读模式


◎标  题 非凡公主
◎译  名 公主
◎片  名 The Princess
◎年  代 2022
◎产  地 美国
◎类  别 剧情 / 行动 / 惊悚 / 奇异
◎语  言 英语
◎上映日期 2022-07-01(美国收集)
◎IMDb评分 5.3/10 (1561人评价)
◎IMDb链接 https://www.imdb.com/title/tt13406136/
◎豆瓣链接 https://movie.douban.com/subject/35864061/
◎导  演 黎文杰 Le-Van Kiet
◎编  剧 本·卢斯蒂格 Ben Lustig
       杰克·桑顿 Jake Thornton
        Jake Thornton
◎演  员 乔伊·金 Joey King
       吴青芸 Thanh Van Ngo
       伊沃·阿拉科夫 Ivo Arakov
       马丁·塔斯科夫 Martin Taskov
       瓦西尔·托舍夫 Vasil Toshev
       博日达尔·赫里斯托夫 Bozhidar Hristov
       德西·斯拉沃娃 Dessy Slavova
◎简  介

  Joey King饰演一位年轻的王室成员,爱刀剑胜过王冠,她必须从无情的雇佣兵手中拯救王国。
  1. Video
  2. ID                                       : 1
  3. Format                                   : HEVC
  4. Format/Info                              : High Efficiency Video Coding
  5. Format profile                           : Main [email protected]@High
  6. HDR format                               : Dolby Vision, Version 1.0, dvhe.05.06, BL+RPU
  7. Codec ID                                 : V_MPEGH/ISO/HEVC
  8. Duration                                 : 1 h 33 min
  9. Bit rate                                 : 16.3 Mb/s
  10. Width                                    : 3 840 pixels
  11. Height                                   : 2 160 pixels
  12. Display aspect ratio                     : 16:9
  13. Frame rate mode                          : Constant
  14. Frame rate                               : 24.000 FPS
  15. Color space                              : YUV
  16. Chroma subsampling                       : 4:2:0
  17. Bit depth                                : 10 bits
  18. Bits/(Pixel*Frame)                       : 0.082
  19. Stream size                              : 10.7 GiB (98%)
  20. Language                                 : English
  21. Default                                  : Yes
  22. Forced                                   : No
  23. Color range                              : Full

  24. Audio
  25. ID                                       : 2
  26. Format                                   : E-AC-3
  27. Format/Info                              : Enhanced AC-3
  28. Commercial name                          : Dolby Digital Plus
  29. Codec ID                                 : A_EAC3
  30. Duration                                 : 1 h 33 min
  31. Bit rate mode                            : Constant
  32. Bit rate                                 : 256 kb/s
  33. Channel(s)                               : 6 channels
  34. Channel layout                           : L R C LFE Ls Rs
  35. Sampling rate                            : 48.0 kHz
  36. Frame rate                               : 31.250 FPS (1536 SPF)
  37. Compression mode                         : Lossy
  38. Stream size                              : 172 MiB (2%)
  39. Language                                 : English
  40. Service kind                             : Complete Main
  41. Default                                  : Yes
  42. Forced                                   : No

  43. Text #1
  44. ID                                       : 3
  45. Format                                   : UTF-8
  46. Codec ID                                 : S_TEXT/UTF8
  47. Codec ID/Info                            : UTF-8 Plain Text
  48. Duration                                 : 1 h 26 min
  49. Bit rate                                 : 22 b/s
  50. Count of elements                        : 663
  51. Stream size                              : 14.5 KiB (0%)
  52. Title                                    : Chinese (Hong Kong)
  53. Language                                 : Chinese
  54. Default                                  : No
  55. Forced                                   : No

  56. Text #2
  57. ID                                       : 4
  58. Format                                   : UTF-8
  59. Codec ID                                 : S_TEXT/UTF8
  60. Codec ID/Info                            : UTF-8 Plain Text
  61. Duration                                 : 1 h 26 min
  62. Bit rate                                 : 24 b/s
  63. Count of elements                        : 666
  64. Stream size                              : 15.3 KiB (0%)
  65. Title                                    : Chinese (Simplified)
  66. Language                                 : Chinese
  67. Default                                  : No
  68. Forced                                   : No

  69. Text #3
  70. ID                                       : 5
  71. Format                                   : UTF-8
  72. Codec ID                                 : S_TEXT/UTF8
  73. Codec ID/Info                            : UTF-8 Plain Text
  74. Duration                                 : 1 h 26 min
  75. Bit rate                                 : 24 b/s
  76. Count of elements                        : 666
  77. Stream size                              : 15.7 KiB (0%)
  78. Title                                    : Chinese (Traditional)
  79. Language                                 : Chinese
  80. Default                                  : No
  81. Forced                                   : No

  82. Text #4
  83. ID                                       : 6
  84. Format                                   : UTF-8
  85. Codec ID                                 : S_TEXT/UTF8
  86. Codec ID/Info                            : UTF-8 Plain Text
  87. Duration                                 : 1 h 25 min
  88. Bit rate                                 : 26 b/s
  89. Count of elements                        : 615
  90. Stream size                              : 16.6 KiB (0%)
  91. Title                                    : Dansk
  92. Language                                 : Danish
  93. Default                                  : No
  94. Forced                                   : No

  95. Text #5
  96. ID                                       : 7
  97. Format                                   : UTF-8
  98. Codec ID                                 : S_TEXT/UTF8
  99. Codec ID/Info                            : UTF-8 Plain Text
  100. Duration                                 : 1 h 25 min
  101. Bit rate                                 : 26 b/s
  102. Count of elements                        : 634
  103. Stream size                              : 16.4 KiB (0%)
  104. Title                                    : Deutsch
  105. Language                                 : German
  106. Default                                  : No
  107. Forced                                   : No

  108. Text #6
  109. ID                                       : 8
  110. Format                                   : UTF-8
  111. Codec ID                                 : S_TEXT/UTF8
  112. Codec ID/Info                            : UTF-8 Plain Text
  113. Duration                                 : 1 h 25 min
  114. Bit rate                                 : 35 b/s
  115. Count of elements                        : 877
  116. Stream size                              : 22.2 KiB (0%)
  117. Title                                    : English [CC]
  118. Language                                 : English
  119. Default                                  : No
  120. Forced                                   : No

  121. Text #7
  122. ID                                       : 9
  123. Format                                   : UTF-8
  124. Codec ID                                 : S_TEXT/UTF8
  125. Codec ID/Info                            : UTF-8 Plain Text
  126. Duration                                 : 1 h 26 min
  127. Bit rate                                 : 24 b/s
  128. Count of elements                        : 662
  129. Stream size                              : 15.5 KiB (0%)
  130. Title                                    : Espa?ol
  131. Language                                 : Spanish
  132. Default                                  : No
  133. Forced                                   : No

  134. Text #8
  135. ID                                       : 10
  136. Format                                   : UTF-8
  137. Codec ID                                 : S_TEXT/UTF8
  138. Codec ID/Info                            : UTF-8 Plain Text
  139. Duration                                 : 1 h 26 min
  140. Bit rate                                 : 25 b/s
  141. Count of elements                        : 632
  142. Stream size                              : 16.1 KiB (0%)
  143. Title                                    : Espa?ol (Latinoamericano)
  144. Language                                 : Spanish
  145. Default                                  : No
  146. Forced                                   : No

  147. Text #9
  148. ID                                       : 11
  149. Format                                   : UTF-8
  150. Codec ID                                 : S_TEXT/UTF8
  151. Codec ID/Info                            : UTF-8 Plain Text
  152. Duration                                 : 1 h 26 min
  153. Bit rate                                 : 26 b/s
  154. Count of elements                        : 657
  155. Stream size                              : 17.1 KiB (0%)
  156. Title                                    : Fran?ais
  157. Language                                 : French
  158. Default                                  : No
  159. Forced                                   : No

  160. Text #10
  161. ID                                       : 12
  162. Format                                   : UTF-8
  163. Codec ID                                 : S_TEXT/UTF8
  164. Codec ID/Info                            : UTF-8 Plain Text
  165. Duration                                 : 1 h 26 min
  166. Bit rate                                 : 44 b/s
  167. Count of elements                        : 663
  168. Stream size                              : 28.5 KiB (0%)
  169. Title                                    : Greek
  170. Language                                 : Greek
  171. Default                                  : No
  172. Forced                                   : No

  173. Text #11
  174. ID                                       : 13
  175. Format                                   : UTF-8
  176. Codec ID                                 : S_TEXT/UTF8
  177. Codec ID/Info                            : UTF-8 Plain Text
  178. Duration                                 : 1 h 25 min
  179. Bit rate                                 : 25 b/s
  180. Count of elements                        : 665
  181. Stream size                              : 15.9 KiB (0%)
  182. Title                                    : Italiano
  183. Language                                 : Italian
  184. Default                                  : No
  185. Forced                                   : No

  186. Text #12
  187. ID                                       : 14
  188. Format                                   : UTF-8
  189. Codec ID                                 : S_TEXT/UTF8
  190. Codec ID/Info                            : UTF-8 Plain Text
  191. Duration                                 : 1 h 26 min
  192. Bit rate                                 : 23 b/s
  193. Count of elements                        : 628
  194. Stream size                              : 14.9 KiB (0%)
  195. Title                                    : Japanese
  196. Language                                 : Japanese
  197. Default                                  : No
  198. Forced                                   : No

  199. Text #13
  200. ID                                       : 15
  201. Format                                   : UTF-8
  202. Codec ID                                 : S_TEXT/UTF8
  203. Codec ID/Info                            : UTF-8 Plain Text
  204. Duration                                 : 1 h 26 min
  205. Bit rate                                 : 29 b/s
  206. Count of elements                        : 665
  207. Stream size                              : 18.7 KiB (0%)
  208. Title                                    : Korean
  209. Language                                 : Korean
  210. Default                                  : No
  211. Forced                                   : No

  212. Text #14
  213. ID                                       : 16
  214. Format                                   : UTF-8
  215. Codec ID                                 : S_TEXT/UTF8
  216. Codec ID/Info                            : UTF-8 Plain Text
  217. Duration                                 : 1 h 26 min
  218. Bit rate                                 : 25 b/s
  219. Count of elements                        : 665
  220. Stream size                              : 16.1 KiB (0%)
  221. Title                                    : Magyar
  222. Language                                 : Hungarian
  223. Default                                  : No
  224. Forced                                   : No

  225. Text #15
  226. ID                                       : 17
  227. Format                                   : UTF-8
  228. Codec ID                                 : S_TEXT/UTF8
  229. Codec ID/Info                            : UTF-8 Plain Text
  230. Duration                                 : 1 h 25 min
  231. Bit rate                                 : 25 b/s
  232. Count of elements                        : 543
  233. Stream size                              : 15.7 KiB (0%)
  234. Title                                    : Nederlands
  235. Language                                 : Dutch
  236. Default                                  : No
  237. Forced                                   : No

  238. Text #16
  239. ID                                       : 18
  240. Format                                   : UTF-8
  241. Codec ID                                 : S_TEXT/UTF8
  242. Codec ID/Info                            : UTF-8 Plain Text
  243. Duration                                 : 1 h 25 min
  244. Bit rate                                 : 26 b/s
  245. Count of elements                        : 506
  246. Stream size                              : 16.9 KiB (0%)
  247. Title                                    : Norsk
  248. Language                                 : Norwegian
  249. Default                                  : No
  250. Forced                                   : No

  251. Text #17
  252. ID                                       : 19
  253. Format                                   : UTF-8
  254. Codec ID                                 : S_TEXT/UTF8
  255. Codec ID/Info                            : UTF-8 Plain Text
  256. Duration                                 : 1 h 26 min
  257. Bit rate                                 : 25 b/s
  258. Count of elements                        : 654
  259. Stream size                              : 16.2 KiB (0%)
  260. Title                                    : Polski
  261. Language                                 : Polish
  262. Default                                  : No
  263. Forced                                   : No

  264. Text #18
  265. ID                                       : 20
  266. Format                                   : UTF-8
  267. Codec ID                                 : S_TEXT/UTF8
  268. Codec ID/Info                            : UTF-8 Plain Text
  269. Duration                                 : 1 h 26 min
  270. Bit rate                                 : 24 b/s
  271. Count of elements                        : 662
  272. Stream size                              : 15.7 KiB (0%)
  273. Title                                    : Português
  274. Language                                 : Portuguese
  275. Default                                  : No
  276. Forced                                   : No

  277. Text #19
  278. ID                                       : 21
  279. Format                                   : UTF-8
  280. Codec ID                                 : S_TEXT/UTF8
  281. Codec ID/Info                            : UTF-8 Plain Text
  282. Duration                                 : 1 h 26 min
  283. Bit rate                                 : 24 b/s
  284. Count of elements                        : 660
  285. Stream size                              : 15.8 KiB (0%)
  286. Title                                    : Português (Brasil)
  287. Language                                 : Portuguese
  288. Default                                  : No
  289. Forced                                   : No

  290. Text #20
  291. ID                                       : 22
  292. Format                                   : UTF-8
  293. Codec ID                                 : S_TEXT/UTF8
  294. Codec ID/Info                            : UTF-8 Plain Text
  295. Duration                                 : 1 h 26 min
  296. Bit rate                                 : 25 b/s
  297. Count of elements                        : 593
  298. Stream size                              : 16.3 KiB (0%)
  299. Title                                    : Roman?
  300. Default                                  : No
  301. Forced                                   : No

  302. Text #21
  303. ID                                       : 23
  304. Format                                   : UTF-8
  305. Codec ID                                 : S_TEXT/UTF8
  306. Codec ID/Info                            : UTF-8 Plain Text
  307. Duration                                 : 1 h 26 min
  308. Bit rate                                 : 25 b/s
  309. Count of elements                        : 663
  310. Stream size                              : 16.3 KiB (0%)
  311. Title                                    : Sloven?ina
  312. Language                                 : Slovak
  313. Default                                  : No
  314. Forced                                   : No

  315. Text #22
  316. ID                                       : 24
  317. Format                                   : UTF-8
  318. Codec ID                                 : S_TEXT/UTF8
  319. Codec ID/Info                            : UTF-8 Plain Text
  320. Duration                                 : 1 h 25 min
  321. Bit rate                                 : 26 b/s
  322. Count of elements                        : 662
  323. Stream size                              : 16.9 KiB (0%)
  324. Title                                    : Suomi
  325. Language                                 : Finnish
  326. Default                                  : No
  327. Forced                                   : No

  328. Text #23
  329. ID                                       : 25
  330. Format                                   : UTF-8
  331. Codec ID                                 : S_TEXT/UTF8
  332. Codec ID/Info                            : UTF-8 Plain Text
  333. Duration                                 : 1 h 25 min
  334. Bit rate                                 : 27 b/s
  335. Count of elements                        : 648
  336. Stream size                              : 17.0 KiB (0%)
  337. Title                                    : Svenska
  338. Language                                 : Swedish
  339. Default                                  : No
  340. Forced                                   : No

  341. Text #24
  342. ID                                       : 26
  343. Format                                   : UTF-8
  344. Codec ID                                 : S_TEXT/UTF8
  345. Codec ID/Info                            : UTF-8 Plain Text
  346. Duration                                 : 1 h 26 min
  347. Bit rate                                 : 26 b/s
  348. Count of elements                        : 665
  349. Stream size                              : 17.0 KiB (0%)
  350. Title                                    : Türk?e
  351. Language                                 : Turkish
  352. Default                                  : No
  353. Forced                                   : No

  354. Text #25
  355. ID                                       : 27
  356. Format                                   : UTF-8
  357. Codec ID                                 : S_TEXT/UTF8
  358. Codec ID/Info                            : UTF-8 Plain Text
  359. Duration                                 : 1 h 26 min
  360. Bit rate                                 : 24 b/s
  361. Count of elements                        : 646
  362. Stream size                              : 15.8 KiB (0%)
  363. Title                                    : ?e?tina
  364. Language                                 : Czech
  365. Default                                  : No
  366. Forced                                   : No
复制代码





                                       
                                       

                                       
                                       
                                       




回复

使用道具 举报

蓝光币
35
发表于 2022-7-3 12:37:43 | 显示全部楼层
楼主发贴辛苦了,谢谢楼主分享!我觉得蓝光电影网是注册对了!
回复 支持 反对

使用道具 举报

蓝光币
213
发表于 2022-7-3 14:58:08 | 显示全部楼层
楼主发贴辛苦了,谢谢楼主分享!我觉得蓝光电影网是注册对了!
回复 支持 反对

使用道具 举报

蓝光币
1306
发表于 2022-7-3 16:17:44 | 显示全部楼层

这个帖子不回对不起自己!我想我是一天也不能离开蓝光电影网。
回复 支持 反对

使用道具 举报

蓝光币
1
发表于 2022-7-3 18:45:13 来自手机 | 显示全部楼层
谢谢楼主分享
回复 支持 反对

使用道具 举报

蓝光币
377
发表于 2022-7-3 21:54:12 | 显示全部楼层
谢谢楼主分享!
回复 支持 反对

使用道具 举报

蓝光币
23
发表于 2022-7-4 15:40:01 | 显示全部楼层
这个应该很有趣,感谢楼主,感谢蓝光高清网!
回复 支持 反对

使用道具 举报

蓝光币
1
发表于 2022-7-5 23:30:57 | 显示全部楼层

既然你诚信诚意的推荐了,那我就勉为其难的看看吧!蓝光电影网不走平凡路。
回复 支持 反对

使用道具 举报

蓝光币
218
发表于 2022-7-10 21:24:52 | 显示全部楼层

这个帖子不回对不起自己!我想我是一天也不能离开蓝光电影网。
回复 支持 反对

使用道具 举报

懒得打字嘛,点击右侧快捷回复 【右侧内容,后台自定义】
您需要登录后才可以回帖 登录 | 立即加入

本版积分规则

Archiver|小黑屋| 蓝光电影网 |网站地图

Copyright © 2021 Comsenz Inc. Powered by 蓝光电影网

蓝光电影网

本站内容由用户自主分享和转载自互联网,转载目的在于传递更多信息,并不代表本网赞同其观点和对其真实性负责。

如有侵权、违反国家法律政策行为,请联系我们,我们会第一时间及时清除和处理!

举报反馈邮箱:4k1080.com@gmail.com

快速回复 返回顶部 返回列表