找回密码

蓝光电影网

查看: 916|回复: 33

[2160p] 唐人街 Chinatown.1974.2160p.WEB-DL.DTS-HD.MA.TrueHD.5.1.DV.MKV.x265-DVSUX 29.57GB

[复制链接]
蓝光币
886
发表于 2022-7-11 11:27:35 | 显示全部楼层 |阅读模式


◎译  名 唐人街
◎片  名 Chinatown
◎年  代 1974
◎产  地 美国
◎类  别 剧情 / 悬疑 / 惊悚 / 犯罪
◎语  言 英语 / 粤语 / 西班牙语
◎上映日期 1974-06-20(美国)
◎IMDb链接 https://www.imdb.com/title/tt0071315/
◎豆瓣评分 8.4/10 (54967人评价)
◎豆瓣链接 https://movie.douban.com/subject/1293889/
◎片  长 130分钟
◎导  演 罗曼·波兰斯基 Roman Polanski (id:1054420)
◎编  剧 罗伯特·汤 Robert Towne (id:1036789)
       罗曼·波兰斯基 Roman Polanski (id:1054420)
◎演  员 杰克·尼科尔森 Jack Nicholson (id:1054528)
       费·唐纳薇 Faye Dunaway (id:1013857)
       约翰·休斯顿 John Huston (id:1025239)
       戴安·拉德 Diane Ladd (id:1036507)
       罗曼·波兰斯基 Roman Polanski (id:1054420)
       布鲁斯·格洛弗 Bruce Glover (id:1099040)
       乔·马特尔 Joe Mantell (id:1115540)
       罗伊·詹森 Roy Jenson (id:1108633)
       吴汉章 James Hong (id:1031824)
       约翰·席勒曼 John Hillerman (id:1098125)
       佩里·洛佩兹 Perry Lopez (id:1116365)
       罗伯特·埃文斯 Robert Evans (id:1084208)
       杰瑞·高德史姑娘 Jerry Goldsmith (id:1007116)
       迈克·芬顿 Mike Fenton (id:1283570)
       W·斯图尔特·坎贝尔 W. Stewart Campbell (id:1279996)
       Vivienne Walker Vivienne Walker (id:1300326)
       李·哈曼 Lee Harman (id:1286060)
       苏珊·杰曼 Susan Germaine (id:1284736)
       Hank Edds Hank Edds (id:1282981)
       拉里·乔斯特 Larry Jost (id:1287947)
◎简  介

  1937年的洛山矶唐人街,警察杰克(杰克?尼科尔森 Jack Nicholson 饰)因不满这里的黑暗,告退当起了私人侦察。此日,一个自称莫拉雷太太的女子请杰克观察丈夫的外遇,杰克怅然接管。杰克发现莫拉雷本来是当地水利总工程师,正在为兴修水坝题目和当地农民争论。随后有人给 了杰克一些证实莫拉雷偷情的照片,隔天早上实在的莫拉雷太太却找上门来要求杰克停止观察莫拉雷。                                    
                                工作变得越来越迷离,杰克决心清查下去……
◎获奖情况 (共11项)
  第47届奥斯卡金像奖 (1975)
  最好影片(提名)
   └──罗伯特·埃文斯 (id:1084208)
  最好导演(提名)
   └──罗曼·波兰斯基 (id:1054420)
  最好男配角(提名)
   └──杰克·尼科尔森 (id:1054528)
  最好女配角(提名)
   └──费·唐纳薇 (id:1013857)
  最好原创剧本
   └──罗伯特·汤 (id:1036789)
  最好摄影(提名)
   └──约翰·A·阿朗索 (id:1018637)
  最好剪辑(提名)
   └──萨姆?奥斯廷 (id:1042461)
  最好声响(提名)
  最好艺术指导(提名)
  最好打扮设想(提名)
   └──安西娅·塞尔伯特 (id:1029408)
  剧情片最好原创配乐(提名)
   └──杰瑞·高德史姑娘 (id:1007116)
  1. Video
  2. ID                                       : 1
  3. Format                                   : HEVC
  4. Format/Info                              : High Efficiency Video Coding
  5. Format profile                           : Main [email protected]@High
  6. HDR format                               : Dolby Vision, Version 1.0, dvhe.05.06, BL+RPU
  7. Codec ID                                 : V_MPEGH/ISO/HEVC
  8. Duration                                 : 2 h 10 min
  9. Bit rate                                 : 24.8 Mb/s
  10. Width                                    : 3 828 pixels
  11. Height                                   : 1 620 pixels
  12. Display aspect ratio                     : 2.35:1
  13. Frame rate mode                          : Constant
  14. Frame rate                               : 23.976 (24000/1001/189150) FPS
  15. Color space                              : YUV
  16. Chroma subsampling                       : 4:2:0
  17. Bit depth                                : 10 bits
  18. Bits/(Pixel*Frame)                       : 0.167
  19. Stream size                              : 22.6 GiB (77%)
  20. Default                                  : Yes
  21. Forced                                   : No

  22. Audio #1
  23. ID                                       : 2
  24. ID in the original source medium         : 4352 (0x1100)
  25. Format                                   : MLP FBA
  26. Format/Info                              : Meridian Lossless Packing FBA
  27. Commercial name                          : Dolby TrueHD
  28. Codec ID                                 : A_TRUEHD
  29. Duration                                 : 2 h 10 min
  30. Bit rate mode                            : Variable
  31. Bit rate                                 : 3 020 kb/s
  32. Maximum bit rate                         : 4 668 kb/s
  33. Channel(s)                               : 6 channels
  34. Channel layout                           : L R C LFE Ls Rs
  35. Sampling rate                            : 48.0 kHz
  36. Frame rate                               : 1 200.000 FPS (40 SPF)
  37. Bit depth                                : 24 bits
  38. Compression mode                         : Lossless
  39. Stream size                              : 2.75 GiB (9%)
  40. Title                                    : TrueHD 5.1
  41. Language                                 : English
  42. Default                                  : Yes
  43. Forced                                   : No
  44. Original source medium                   : Blu-ray

  45. Audio #2
  46. ID                                       : 3
  47. Format                                   : DTS XLL
  48. Format/Info                              : Digital Theater Systems
  49. Commercial name                          : DTS-HD Master Audio
  50. Codec ID                                 : A_DTS
  51. Duration                                 : 2 h 10 min
  52. Bit rate mode                            : Variable
  53. Bit rate                                 : 3 489 kb/s
  54. Channel(s)                               : 6 channels
  55. Channel layout                           : C L R Ls Rs LFE
  56. Sampling rate                            : 48.0 kHz
  57. Frame rate                               : 93.750 FPS (512 SPF)
  58. Bit depth                                : 24 bits
  59. Compression mode                         : Lossless
  60. Stream size                              : 3.18 GiB (11%)
  61. Title                                    : DTS-HD MA 5.1
  62. Language                                 : English
  63. Default                                  : No
  64. Forced                                   : No

  65. Audio #3
  66. ID                                       : 4
  67. ID in the original source medium         : 4352 (0x1100)
  68. Format                                   : AC-3
  69. Format/Info                              : Audio Coding 3
  70. Commercial name                          : Dolby Digital
  71. Codec ID                                 : A_AC3
  72. Duration                                 : 2 h 10 min
  73. Bit rate mode                            : Constant
  74. Bit rate                                 : 640 kb/s
  75. Channel(s)                               : 6 channels
  76. Channel layout                           : L R C LFE Ls Rs
  77. Sampling rate                            : 48.0 kHz
  78. Frame rate                               : 31.250 FPS (1536 SPF)
  79. Compression mode                         : Lossy
  80. Delay relative to video                  : 24 ms
  81. Stream size                              : 597 MiB (2%)
  82. Title                                    : DD 5.1
  83. Language                                 : English
  84. Service kind                             : Complete Main
  85. Default                                  : No
  86. Forced                                   : No
  87. Original source medium                   : Blu-ray

  88. Audio #4
  89. ID                                       : 5
  90. Format                                   : AC-3
  91. Format/Info                              : Audio Coding 3
  92. Commercial name                          : Dolby Digital
  93. Codec ID                                 : A_AC3
  94. Duration                                 : 2 h 10 min
  95. Bit rate mode                            : Constant
  96. Bit rate                                 : 384 kb/s
  97. Channel(s)                               : 6 channels
  98. Channel layout                           : L R C LFE Ls Rs
  99. Sampling rate                            : 48.0 kHz
  100. Frame rate                               : 31.250 FPS (1536 SPF)
  101. Compression mode                         : Lossy
  102. Stream size                              : 358 MiB (1%)
  103. Language                                 : English
  104. Service kind                             : Complete Main
  105. Default                                  : No
  106. Forced                                   : No

  107. Text #1
  108. ID                                       : 6
  109. Format                                   : UTF-8
  110. Codec ID                                 : S_TEXT/UTF8
  111. Codec ID/Info                            : UTF-8 Plain Text
  112. Duration                                 : 2 h 7 min
  113. Bit rate                                 : 56 b/s
  114. Frame rate                               : 0.235 FPS
  115. Count of elements                        : 1791
  116. Stream size                              : 52.3 KiB (0%)
  117. Title                                    : English CC
  118. Language                                 : English
  119. Default                                  : Yes
  120. Forced                                   : No

  121. Text #2
  122. ID                                       : 7
  123. Format                                   : UTF-8
  124. Codec ID                                 : S_TEXT/UTF8
  125. Codec ID/Info                            : UTF-8 Plain Text
  126. Duration                                 : 2 h 6 min
  127. Bit rate                                 : 64 b/s
  128. Frame rate                               : 0.122 FPS
  129. Count of elements                        : 924
  130. Stream size                              : 59.9 KiB (0%)
  131. Title                                    : Arabic
  132. Language                                 : Arabic
  133. Default                                  : No
  134. Forced                                   : No

  135. Text #3
  136. ID                                       : 8
  137. Format                                   : UTF-8
  138. Codec ID                                 : S_TEXT/UTF8
  139. Codec ID/Info                            : UTF-8 Plain Text
  140. Duration                                 : 2 h 6 min
  141. Bit rate                                 : 36 b/s
  142. Frame rate                               : 0.123 FPS
  143. Count of elements                        : 933
  144. Stream size                              : 34.2 KiB (0%)
  145. Title                                    : Chinese Mandarin Traditional
  146. Language                                 : Chinese
  147. Default                                  : No
  148. Forced                                   : No

  149. Text #4
  150. ID                                       : 9
  151. Format                                   : UTF-8
  152. Codec ID                                 : S_TEXT/UTF8
  153. Codec ID/Info                            : UTF-8 Plain Text
  154. Duration                                 : 2 h 6 min
  155. Bit rate                                 : 44 b/s
  156. Frame rate                               : 0.178 FPS
  157. Count of elements                        : 1347
  158. Stream size                              : 41.0 KiB (0%)
  159. Title                                    : Danish
  160. Language                                 : Danish
  161. Default                                  : No
  162. Forced                                   : No

  163. Text #5
  164. ID                                       : 10
  165. Format                                   : UTF-8
  166. Codec ID                                 : S_TEXT/UTF8
  167. Codec ID/Info                            : UTF-8 Plain Text
  168. Duration                                 : 2 h 6 min
  169. Bit rate                                 : 44 b/s
  170. Frame rate                               : 0.124 FPS
  171. Count of elements                        : 937
  172. Stream size                              : 40.8 KiB (0%)
  173. Title                                    : German
  174. Language                                 : German
  175. Default                                  : No
  176. Forced                                   : No

  177. Text #6
  178. ID                                       : 11
  179. Format                                   : UTF-8
  180. Codec ID                                 : S_TEXT/UTF8
  181. Codec ID/Info                            : UTF-8 Plain Text
  182. Duration                                 : 2 h 8 min
  183. Bit rate                                 : 44 b/s
  184. Frame rate                               : 0.179 FPS
  185. Count of elements                        : 1383
  186. Stream size                              : 42.0 KiB (0%)
  187. Title                                    : Spanish Latin American
  188. Language                                 : Spanish
  189. Default                                  : No
  190. Forced                                   : No

  191. Text #7
  192. ID                                       : 12
  193. Format                                   : UTF-8
  194. Codec ID                                 : S_TEXT/UTF8
  195. Codec ID/Info                            : UTF-8 Plain Text
  196. Duration                                 : 2 h 6 min
  197. Bit rate                                 : 46 b/s
  198. Frame rate                               : 0.177 FPS
  199. Count of elements                        : 1342
  200. Stream size                              : 43.3 KiB (0%)
  201. Title                                    : Finnish
  202. Language                                 : Finnish
  203. Default                                  : No
  204. Forced                                   : No

  205. Text #8
  206. ID                                       : 13
  207. Format                                   : UTF-8
  208. Codec ID                                 : S_TEXT/UTF8
  209. Codec ID/Info                            : UTF-8 Plain Text
  210. Duration                                 : 2 h 6 min
  211. Bit rate                                 : 40 b/s
  212. Frame rate                               : 0.167 FPS
  213. Count of elements                        : 1266
  214. Stream size                              : 37.9 KiB (0%)
  215. Title                                    : French European
  216. Language                                 : French
  217. Default                                  : No
  218. Forced                                   : No

  219. Text #9
  220. ID                                       : 14
  221. Format                                   : UTF-8
  222. Codec ID                                 : S_TEXT/UTF8
  223. Codec ID/Info                            : UTF-8 Plain Text
  224. Duration                                 : 2 h 6 min
  225. Bit rate                                 : 41 b/s
  226. Frame rate                               : 0.162 FPS
  227. Count of elements                        : 1230
  228. Stream size                              : 38.1 KiB (0%)
  229. Title                                    : Dutch
  230. Language                                 : Dutch
  231. Default                                  : No
  232. Forced                                   : No

  233. Text #10
  234. ID                                       : 15
  235. Format                                   : UTF-8
  236. Codec ID                                 : S_TEXT/UTF8
  237. Codec ID/Info                            : UTF-8 Plain Text
  238. Duration                                 : 2 h 6 min
  239. Bit rate                                 : 43 b/s
  240. Frame rate                               : 0.180 FPS
  241. Count of elements                        : 1362
  242. Stream size                              : 39.9 KiB (0%)
  243. Title                                    : Norwegian
  244. Language                                 : Norwegian
  245. Default                                  : No
  246. Forced                                   : No

  247. Text #11
  248. ID                                       : 16
  249. Format                                   : UTF-8
  250. Codec ID                                 : S_TEXT/UTF8
  251. Codec ID/Info                            : UTF-8 Plain Text
  252. Duration                                 : 2 h 6 min
  253. Bit rate                                 : 48 b/s
  254. Frame rate                               : 0.188 FPS
  255. Count of elements                        : 1424
  256. Stream size                              : 44.9 KiB (0%)
  257. Title                                    : Polish
  258. Language                                 : Polish
  259. Default                                  : No
  260. Forced                                   : No

  261. Text #12
  262. ID                                       : 17
  263. Format                                   : UTF-8
  264. Codec ID                                 : S_TEXT/UTF8
  265. Codec ID/Info                            : UTF-8 Plain Text
  266. Duration                                 : 2 h 6 min
  267. Bit rate                                 : 45 b/s
  268. Frame rate                               : 0.181 FPS
  269. Count of elements                        : 1369
  270. Stream size                              : 42.3 KiB (0%)
  271. Title                                    : Portuguese Brazilian
  272. Language                                 : Portuguese
  273. Default                                  : No
  274. Forced                                   : No

  275. Text #13
  276. ID                                       : 18
  277. Format                                   : UTF-8
  278. Codec ID                                 : S_TEXT/UTF8
  279. Codec ID/Info                            : UTF-8 Plain Text
  280. Duration                                 : 2 h 6 min
  281. Bit rate                                 : 86 b/s
  282. Frame rate                               : 0.239 FPS
  283. Count of elements                        : 1809
  284. Stream size                              : 80.5 KiB (0%)
  285. Title                                    : Russian
  286. Language                                 : Russian
  287. Default                                  : No
  288. Forced                                   : No

  289. Text #14
  290. ID                                       : 19
  291. Format                                   : UTF-8
  292. Codec ID                                 : S_TEXT/UTF8
  293. Codec ID/Info                            : UTF-8 Plain Text
  294. Duration                                 : 2 h 6 min
  295. Bit rate                                 : 42 b/s
  296. Frame rate                               : 0.158 FPS
  297. Count of elements                        : 1201
  298. Stream size                              : 39.2 KiB (0%)
  299. Title                                    : Swedish
  300. Language                                 : Swedish
  301. Default                                  : No
  302. Forced                                   : No

  303. Text #15
  304. ID                                       : 20
  305. Format                                   : UTF-8
  306. Codec ID                                 : S_TEXT/UTF8
  307. Codec ID/Info                            : UTF-8 Plain Text
  308. Duration                                 : 2 h 6 min
  309. Bit rate                                 : 54 b/s
  310. Frame rate                               : 0.210 FPS
  311. Count of elements                        : 1596
  312. Stream size                              : 50.3 KiB (0%)
  313. Title                                    : Turkish
  314. Language                                 : Turkish
  315. Default                                  : No
  316. Forced                                   : No

  317. Text #16
  318. ID                                       : 21
  319. Format                                   : UTF-8
  320. Codec ID                                 : S_TEXT/UTF8
  321. Codec ID/Info                            : UTF-8 Plain Text
  322. Duration                                 : 2 h 6 min
  323. Bit rate                                 : 37 b/s
  324. Frame rate                               : 0.123 FPS
  325. Count of elements                        : 933
  326. Stream size                              : 34.3 KiB (0%)
  327. Title                                    : Chinese Cantonese Traditional
  328. Language                                 : Chinese
  329. Default                                  : No
  330. Forced                                   : No

  331. Menu
  332. 00:00:00.000                             : en:Studio Logos
  333. 00:00:09.000                             : en:Curly's Lament, Opening Credits
  334. 00:02:58.000                             : en:Studio Logo
  335. 00:03:06.000                             : en:Curly's Lament, Opening Credits
  336. 00:03:42.000                             : en:Jake Is Hired to Investigate a Spouse
  337. 00:05:45.000                             : en:Jake Sits In on a Town Hall Meeting
  338. 00:08:05.000                             : en:Jake Spies on Mulwray
  339. 00:09:33.000                             : en:Jake Follows Mulwray
  340. 00:10:06.000                             : en:Jake Observes Mulwray
  341. 00:11:47.000                             : en:Jake Leaves the Beach
  342. 00:12:45.000                             : en:Jake Inspects Information He Gathered
  343. 00:14:52.000                             : en:Jake and His Associate Take Pictures of Mulwray
  344. 00:15:32.000                             : en:Jake Takes More Pictures of Mulwray
  345. 00:16:21.000                             : en:Jake Confronts a Banker
  346. 00:17:48.000                             : en:An Unexpected Visitor Reveals Herself
  347. 00:20:37.000                             : en:Jake Snoops Around
  348. 00:23:47.000                             : en:Jake Runs into Mulvihill
  349. 00:24:40.000                             : en:Jake Goes to Evelyn's House
  350. 00:26:11.000                             : en:Evelyn Arrives
  351. 00:30:48.000                             : en:Jake Tries to Find Mulwray
  352. 00:33:26.000                             : en:Evelyn Identifies the Body
  353. 00:35:35.000                             : en:Jake Walks Evelyn to Her Car
  354. 00:36:10.000                             : en:Jake Talks to the Coroner
  355. 00:37:59.000                             : en:Jake Inspects the River
  356. 00:40:04.000                             : en:Jake Is Confronted
  357. 00:43:05.000                             : en:Jake Gets a Call
  358. 00:45:12.000                             : en:Jake Meets Evelyn for Lunch
  359. 00:49:33.000                             : en:Jake Tells Off Evelyn
  360. 00:50:43.000                             : en:Jake Discovers Something
  361. 00:54:05.000                             : en:Jake Asks Yelburton Some Questions
  362. 00:56:48.000                             : en:Evelyn Pays Jake a Surprise Visit
  363. 00:59:58.000                             : en:Jake Visits Noah
  364. 01:01:04.000                             : en:Jake Talks to Noah
  365. 01:04:55.000                             : en:Noah Hires Jake to Find Mulwray's Lover
  366. 01:06:29.000                             : en:Jake Gets Information on the Orange Groves
  367. 01:08:55.000                             : en:Jake Investigates a Farm
  368. 01:12:38.000                             : en:Evelyn Picks Jake Up
  369. 01:13:13.000                             : en:Jake Explains the Situation
  370. 01:14:47.000                             : en:Jake and Evelyn Investigates Jasper's Purchase
  371. 01:16:47.000                             : en:Jake Questions the Tenants
  372. 01:18:54.000                             : en:Jake Fights His Way Out
  373. 01:20:22.000                             : en:Evelyn and Jake Make Small Talk
  374. 01:22:14.000                             : en:Evelyn Treats Jake's Nose
  375. 01:23:52.000                             : en:Evelyn and Jake Share a Moment
  376. 01:29:25.000                             : en:Jake Follows Evelyn
  377. 01:30:47.000                             : en:Jake Spies on Evelyn
  378. 01:32:04.000                             : en:Jake Extracts Information from Evelyn
  379. 01:35:31.000                             : en:Jake Tries to Get Some Sleep
  380. 01:37:41.000                             : en:Jake Visits Ida
  381. 01:40:33.000                             : en:Jake Talks to Escobar and Loach
  382. 01:43:44.000                             : en:Jake Shows Loach and Escobar the Pipe
  383. 01:44:54.000                             : en:Jake Goes to Talk to Evelyn
  384. 01:47:13.000                             : en:Jake Tries to Put the Pieces Together
  385. 01:53:59.000                             : en:Jake Calls His Associates to Explain His Plan
  386. 01:55:14.000                             : en:Jake Lies to Loach and Escobar
  387. 01:56:06.000                             : en:Jake Convinces Escobar to Let Him Go in Alone
  388. 01:57:01.000                             : en:Jake Asks Curly to Help Him Escape
  389. 01:57:56.000                             : en:Jake and Curly Escape
  390. 01:59:02.000                             : en:Jake Sends Curly Off with Evelyn's Luggage
  391. 01:59:55.000                             : en:Jake Calls Noah
  392. 02:03:43.000                             : en:Jake Goes to Chinatown with Noah
  393. 02:04:33.000                             : en:Escobar Arrests Jake and His Associates
  394. 02:05:30.000                             : en:Noah Tries to Talk to Katherine
  395. 02:09:21.000                             : en:End Credits
复制代码






                                       
                                       

                                       
                                       
                                       




回复

使用道具 举报

蓝光币
64
发表于 2022-7-12 10:23:02 | 显示全部楼层
楼主发贴辛苦了,谢谢楼主分享!
回复 支持 1 反对 0

使用道具 举报

蓝光币
0
发表于 2022-7-11 14:22:30 | 显示全部楼层
楼主发贴辛苦了,谢谢楼主分享!我觉得蓝光电影网是注册对了!
回复 支持 反对

使用道具 举报

蓝光币
323
发表于 2022-7-11 15:00:09 | 显示全部楼层

楼主太厉害了!楼主,电影应该很好看我觉得蓝光电影网真是个好地方!
回复 支持 反对

使用道具 举报

蓝光币
3426
发表于 2022-7-11 18:57:19 | 显示全部楼层

这个帖子不回对不起自己!我想我是一天也不能离开蓝光电影网。
回复 支持 反对

使用道具 举报

蓝光币
4
发表于 2022-7-12 01:00:53 | 显示全部楼层

楼主发贴辛苦了,谢谢楼主分享!我觉得蓝光电影网是注册对了!
回复 支持 反对

使用道具 举报

蓝光币
38
发表于 2022-7-12 06:49:23 | 显示全部楼层
感谢分享 楼主辛苦了
回复 支持 反对

使用道具 举报

蓝光币
2
发表于 2022-7-12 09:26:59 | 显示全部楼层

楼主,我太崇拜你了!我想我是一天也不能离开蓝光电影网。
回复 支持 反对

使用道具 举报

蓝光币
2
发表于 2022-7-12 10:06:05 | 显示全部楼层
谢谢楼主分享!
回复 支持 反对

使用道具 举报

蓝光币
203
发表于 2022-7-12 10:32:00 | 显示全部楼层
楼主发贴辛苦了,谢谢楼主分享!我觉得蓝光电影网是注册对了!
回复 支持 反对

使用道具 举报

懒得打字嘛,点击右侧快捷回复 【右侧内容,后台自定义】
您需要登录后才可以回帖 登录 | 立即加入

本版积分规则

Archiver|小黑屋| 蓝光电影网 |网站地图

Copyright © 2021 Comsenz Inc. Powered by 蓝光电影网

蓝光电影网

本站内容由用户自主分享和转载自互联网,转载目的在于传递更多信息,并不代表本网赞同其观点和对其真实性负责。

如有侵权、违反国家法律政策行为,请联系我们,我们会第一时间及时清除和处理!

举报反馈邮箱:[email protected]

快速回复 返回顶部 返回列表