找回密码

查看: 1479|回复: 0

[惊悚] 大学新生的秘密生活 The.Secret.Lives.of.College.Freshmen.2021.1080p.AMZN.WEBRip.DDP2.0.x264-CBON 5.72GB

[复制链接]
蓝光币
1840
发表于 2022-7-16 19:34:47 | 显示全部楼层 |阅读模式


◎标  题 大学新生的奥秘生活
◎片  名 The Secret Lives of College Freshmen
◎年  代 2021
◎产  地 美国
◎类  别 惊悚
◎语  言 英语
◎上映日期 2021-09-24(美国)
◎IMDb评分 6/10 (85人评价)
◎IMDb链接 https://www.imdb.com/title/tt13956614/
◎豆瓣链接 https://movie.douban.com/subject/35807232/
◎片  长 90分钟
◎导  演 托尼·迪恩·史姑娘 Tony Dean Smith
◎编  剧 托尼·迪恩·史姑娘 Tony Dean Smith
◎演  员 莎拉·格雷 Sarah Grey
       奥利弗·莱斯 Oliver Rice
       贝妮塔·夏 Benita Ha
       肯德尔·克洛斯 Kendall Cross
       约翰·卡西尼 John Cassini
       吉米·亚历山大 Kimi Alexander
◎简  介

  A college freshman moves into the perfect dorm on campus, but soon discovers the previous resident died under mysterious circumstances. Believing the girl was murdered, she tries to uncover the identity of the killer before it's too late.
  1. Video
  2. ID                                       : 1
  3. Format                                   : AVC
  4. Format/Info                              : Advanced Video Codec
  5. Format profile                           : [email protected]
  6. Format settings                          : CABAC / 4 Ref Frames
  7. Format settings, CABAC                   : Yes
  8. Format settings, Reference frames        : 4 frames
  9. Codec ID                                 : V_MPEG4/ISO/AVC
  10. Duration                                 : 1 h 25 min
  11. Bit rate mode                            : Constant
  12. Bit rate                                 : 9 362 kb/s
  13. Nominal bit rate                         : 10 000 kb/s
  14. Width                                    : 1 920 pixels
  15. Height                                   : 1 080 pixels
  16. Display aspect ratio                     : 16:9
  17. Frame rate mode                          : Constant
  18. Frame rate                               : 23.976 (24000/1001/189150) FPS
  19. Color space                              : YUV
  20. Chroma subsampling                       : 4:2:0
  21. Bit depth                                : 8 bits
  22. Scan type                                : Progressive
  23. Bits/(Pixel*Frame)                       : 0.188
  24. Stream size                              : 5.58 GiB (98%)
  25. Language                                 : English
  26. Default                                  : Yes
  27. Forced                                   : No
  28. Color range                              : Limited
  29. Color primaries                          : BT.709
  30. Transfer characteristics                 : BT.709
  31. Matrix coefficients                      : BT.709
  32. Audio
  33. ID                                       : 2
  34. Format                                   : E-AC-3
  35. Format/Info                              : Enhanced AC-3
  36. Commercial name                          : Dolby Digital Plus
  37. Codec ID                                 : A_EAC3
  38. Duration                                 : 1 h 25 min
  39. Bit rate mode                            : Constant
  40. Bit rate                                 : 224 kb/s
  41. Channel(s)                               : 2 channels
  42. Channel layout                           : L R
  43. Sampling rate                            : 48.0 kHz
  44. Frame rate                               : 31.250 FPS (1536 SPF)
  45. Compression mode                         : Lossy
  46. Stream size                              : 137 MiB (2%)
  47. Language                                 : English
  48. Service kind                             : Complete Main
  49. Default                                  : Yes
  50. Forced                                   : No
  51. Text #1
  52. ID                                       : 3
  53. Format                                   : UTF-8
  54. Codec ID                                 : S_TEXT/UTF8
  55. Codec ID/Info                            : UTF-8 Plain Text
  56. Duration                                 : 1 h 23 min
  57. Bit rate                                 : 67 b/s
  58. Frame rate                               : 0.321 FPS
  59. Count of elements                        : 1605
  60. Stream size                              : 41.4 KiB (0%)
  61. Language                                 : English
  62. Default                                  : No
  63. Forced                                   : No
  64. Text #2
  65. ID                                       : 4
  66. Format                                   : UTF-8
  67. Codec ID                                 : S_TEXT/UTF8
  68. Codec ID/Info                            : UTF-8 Plain Text
  69. Duration                                 : 1 h 24 min
  70. Bit rate                                 : 73 b/s
  71. Frame rate                               : 0.364 FPS
  72. Count of elements                        : 1840
  73. Stream size                              : 45.1 KiB (0%)
  74. Title                                    : SDH
  75. Language                                 : English
  76. Default                                  : No
  77. Forced                                   : No
复制代码







                                       
                                       

                                       
                                       
                                       




回复

使用道具 举报

懒得打字嘛,点击右侧快捷回复 【右侧内容,后台自定义】
您需要登录后才可以回帖 登录 | 立即加入

本版积分规则

Copyright © 2024 Comsenz Inc. Powered by 蓝光电影网

本站内容由用户自主分享和转载自互联网,转载目的在于传递更多信息,并不代表本网赞同其观点和对其真实性负责。

如有侵权、违反国家法律政策行为,请联系我们,我们会第一时间及时清除和处理!

举报反馈邮箱:4k1080.com@gmail.com

快速回复 返回顶部 返回列表