找回密码

查看: 2006|回复: 0

[剧情] 杀手之王[国粤多音轨/简繁英字幕].Hitman.1998.BluRay.1080p.x265.10bit.2Audio-MiniHD 6.75GB

[复制链接]
蓝光币
8
发表于 2022-7-17 01:03:53 | 显示全部楼层 |阅读模式


◎标  题 杀手之王
◎译  名 The Contract Killer
◎片  名 殺手之王
◎年  代 1998
◎产  地 中国香港
◎类  别 笑剧 / 行动
◎语  言 粤语 / 汉语普通话 / 日语 / 英语
◎上映日期 1998-04-03(中国香港)
◎IMDb评分 6.2/10 (5138人评价)
◎IMDb链接 https://www.imdb.com/title/tt0163818/
◎豆瓣评分 6.8/10 (24159人评价)
◎豆瓣链接 https://movie.douban.com/subject/1297194/
◎片  长 104分钟
◎导  演 董玮 Wai Tung
◎编  剧 陈庆嘉 Hing-Ka Chan
       谷德昭 Vincent Kok
◎演  员 李连杰 Jet Li
       任达华 Simon Yam
       曾志伟 Eric Tsang
       梁咏琪 Gigi Leung
       何宝生 Timmy Ho
       裘德·普瓦耶 Jude Poyer
       罗树琪 Shu-Kei Law
       泽田谦也 Kenya Sawada
       程东 John Ching Tung
       吴志雄 Chi Hung Ng
       林迪安 Dion Lam
       叶广俭 Kwong Kim Yip
       保罗·拉波夫斯基 Paul Rapovski
       佐原健二 Kenji Sahara
       林富伟 Fu-wai Lam
       朱西·泰杰尔曼 Jussi Tegelman
       黄岳泰 Arthur Wong
       张嘉辉 Ka-fai Cheung
       雷楚雄 Bill Lui
       陈顾方 Shirley Chan
       文润铃 Yun-Ling Man
       梁力之 Lik-Chi Leung
       董玮 Wai Tung
◎标  签 李连杰 / 行动 / 香港 / 香港电影 / 任达华 / 曾志伟 / 梁咏琪 / 1998
◎简  介
  一位老人在中日战争期间被日本财阀杀戮了百口,故此他请了天下第一杀名片杀财阀。财阀被杀后,他生前设立的复仇基金启动了,查出并杀死幕后指使者的人能获得一亿基金。全天下的杀手都对这笔基金虎视眈眈,就连财阀的孙子都找来天下第二号杀手灰狼寻觅真凶。鳄佬(曾志伟 饰)与小富(李连杰 饰)是杀手群中的一对拍档。身手非凡的小富希望能赢利回故乡,恰好上当子鳄佬操纵了他的身手,两人合作努力获得高额基金……
  1. ##### MediaInfo ######
  2. General
  3. Unique ID                                : 155793112204830886171709680189624332340 (0x7534A978566E959A2A79C14F823CB034)
  4. Complete name                            : Hitman.1998.BluRay.1080p.x265.10bit.2Audio-MiniHD.mkv
  5. Format                                   : Matroska
  6. Format version                           : Version 4
  7. File size                                : 6.75 GiB
  8. Duration                                 : 1 h 44 min
  9. Overall bit rate                         : 9 262 kb/s
  10. Encoded date                             : UTC 2018-10-29 18:52:52
  11. Writing application                      : mkvmerge v20.0.0 ('I Am The Sun') 64-bit
  12. Writing library                          : libebml v1.3.5 + libmatroska v1.4.8
  13. Video
  14. ID                                       : 1
  15. Format                                   : HEVC
  16. Format/Info                              : High Efficiency Video Coding
  17. Format profile                           : Main 10@L4@Main
  18. Codec ID                                 : V_MPEGH/ISO/HEVC
  19. Duration                                 : 1 h 44 min
  20. Bit rate                                 : 7 798 kb/s
  21. Width                                    : 1 916 pixels
  22. Height                                   : 1 022 pixels
  23. Display aspect ratio                     : 1.85:1
  24. Frame rate mode                          : Constant
  25. Frame rate                               : 24.000 FPS
  26. Color space                              : YUV
  27. Chroma subsampling                       : 4:2:0
  28. Bit depth                                : 10 bits
  29. Bits/(Pixel*Frame)                       : 0.166
  30. Stream size                              : 5.68 GiB (84%)
  31. Writing library                          : x265 2.8+1-478bfe2b7673:[Windows][GCC 7.3.0][64 bit] 10bit
  32. Encoding settings                        : cpuid=538751111039 / frame-threads=4 / numa-pools=16 / wpp / no-pmode / no-pme / no-psnr / no-ssim / log-level=2 / csv / csv-log-level=0 / input-csp=1 / input-res=1916x1022 / interlace=0 / total-frames=150192 / level-idc=0 / high-tier=1 / uhd-bd=0 / ref=5 / no-allow-non-conformance / no-repeat-headers / annexb / no-aud / no-hrd / info / hash=0 / no-temporal-layers / no-open-gop / min-keyint=1 / keyint=360 / gop-lookahead=0 / bframes=9 / b-adapt=2 / b-pyramid / bframe-bias=0 / rc-lookahead=60 / lookahead-slices=4 / NTM4NzU=uuDQuD2mJt9fsCf / scenecut=40 / radl=0 / no-intra-refresh / ctu=32 / min-cu-size=8 / rect / no-amp / max-tu-size=16 / tu-inter-depth=2 / tu-intra-depth=2 / limit-tu=4 / rdoq-level=1 / dynamic-rd=0.00 / ssim-rd / signhide / no-tskip / nr-intra=0 / nr-inter=0 / no-constrained-intra / no-strong-intra-smoothing / max-merge=3 / limit-refs=2 / limit-modes / me=3 / subme=5 / merange=25 / temporal-mvp / weightp / weightb / no-analyze-src-pics / deblock=-1:-1 / no-sao / no-sao-non-deblock / rd=4 / no-early-skip / rskip / no-fast-intra / no-tskip-fast / no-cu-lossless / b-intra / no-splitrd-skip / rdpenalty=1 / psy-rd=0.00 / psy-rdoq=5.00 / no-rd-refine / no-lossless / cbqpoffs=-2 / crqpoffs=-2 / rc=crf / crf=19.0 / qcomp=0.70 / qpstep=4 / stats-write=0 / stats-read=0 / ipratio=1.40 / pbratio=1.30 / aq-mode=1 / aq-strength=0.80 / cutree / zone-count=0 / no-strict-cbr / qg-size=16 / no-rc-grain / qpmax=69 / qpmin=0 / no-const-vbv / sar=0 / overscan=0 / videoformat=5 / range=0 / colorprim=1 / transfer=2 / colormatrix=2 / chromaloc=0 / display-window=0 / max-cll=0,0 / min-luma=0 / max-luma=1023 / log2-max-poc-lsb=8 / vui-timing-info / vui-hrd-info / slices=1 / no-opt-qp-pps / no-opt-ref-list-length-pps / no-multi-pass-opt-rps / scenecut-bias=0.05 / no-opt-cu-delta-qp / no-aq-motion / no-hdr / no-hdr-opt / no-dhdr10-opt / no-idr-recovery-sei / analysis-reuse-level=5 / scale-factor=0 / refine-intra=0 / refine-inter=0 / refine-mv=0 / no-limit-sao / ctu-info=0 / no-lowpass-dct / refine-mv-type=0 / copy-pic=1 / max-ausize-factor=1.0 / no-dynamic-refine / no-single-sei
  33. Language                                 : Chinese
  34. Default                                  : Yes
  35. Forced                                   : No
  36. Color range                              : Limited
  37. Color primaries                          : BT.709
  38. Audio #1
  39. ID                                       : 2
  40. Format                                   : AC-3
  41. Format/Info                              : Audio Coding 3
  42. Commercial name                          : Dolby Digital
  43. Codec ID                                 : A_AC3
  44. Duration                                 : 1 h 44 min
  45. Bit rate mode                            : Constant
  46. Bit rate                                 : 640 kb/s
  47. Channel(s)                               : 6 channels
  48. Channel layout                           : L R C LFE Ls Rs
  49. Sampling rate                            : 48.0 kHz
  50. Frame rate                               : 31.250 FPS (1536 SPF)
  51. Compression mode                         : Lossy
  52. Stream size                              : 477 MiB (7%)
  53. Title                                    : 粤语
  54. Language                                 : Chinese
  55. Service kind                             : Complete Main
  56. Default                                  : Yes
  57. Forced                                   : No
  58. Audio #2
  59. ID                                       : 3
  60. Format                                   : AC-3
  61. Format/Info                              : Audio Coding 3
  62. Commercial name                          : Dolby Digital
  63. Codec ID                                 : A_AC3
  64. Duration                                 : 1 h 44 min
  65. Bit rate mode                            : Constant
  66. Bit rate                                 : 640 kb/s
  67. Channel(s)                               : 6 channels
  68. Channel layout                           : L R C LFE Ls Rs
  69. Sampling rate                            : 48.0 kHz
  70. Frame rate                               : 31.250 FPS (1536 SPF)
  71. Compression mode                         : Lossy
  72. Stream size                              : 477 MiB (7%)
  73. Title                                    : 国语
  74. Language                                 : Chinese
  75. Service kind                             : Complete Main
  76. Default                                  : No
  77. Forced                                   : No
  78. Text #1
  79. ID                                       : 4
  80. Format                                   : PGS
  81. Muxing mode                              : zlib
  82. Codec ID                                 : S_HDMV/PGS
  83. Codec ID/Info                            : Picture based subtitle format used on BDs/HD-DVDs
  84. Title                                    : 繁体
  85. Language                                 : Chinese
  86. Default                                  : Yes
  87. Forced                                   : No
  88. Text #2
  89. ID                                       : 5
  90. Format                                   : PGS
  91. Muxing mode                              : zlib
  92. Codec ID                                 : S_HDMV/PGS
  93. Codec ID/Info                            : Picture based subtitle format used on BDs/HD-DVDs
  94. Title                                    : 简体
  95. Language                                 : Chinese
  96. Default                                  : No
  97. Forced                                   : No
  98. Text #3
  99. ID                                       : 6
  100. Format                                   : PGS
  101. Muxing mode                              : zlib
  102. Codec ID                                 : S_HDMV/PGS
  103. Codec ID/Info                            : Picture based subtitle format used on BDs/HD-DVDs
  104. Title                                    : 英文
  105. Language                                 : English
  106. Default                                  : No
  107. Forced                                   : No
  108. Menu
  109. 00:00:00.000                             : en:Chapter 01
  110. 00:06:58.416                             : en:Chapter 02
  111. 00:12:20.250                             : en:Chapter 03
  112. 00:15:11.916                             : en:Chapter 04
  113. 00:18:03.333                             : en:Chapter 05
  114. 00:24:16.375                             : en:Chapter 06
  115. 00:28:13.833                             : en:Chapter 07
  116. 00:33:55.750                             : en:Chapter 08
  117. 00:42:36.958                             : en:Chapter 09
  118. 00:46:10.125                             : en:Chapter 10
  119. 00:50:55.708                             : en:Chapter 11
  120. 00:53:38.583                             : en:Chapter 12
  121. 00:57:53.000                             : en:Chapter 13
  122. 01:01:04.583                             : en:Chapter 14
  123. 01:09:25.000                             : en:Chapter 15
  124. 01:15:36.833                             : en:Chapter 16
  125. 01:21:54.125                             : en:Chapter 17
  126. 01:25:02.208                             : en:Chapter 18
  127. 01:31:20.750                             : en:Chapter 19
  128. 01:41:25.000                             : en:Chapter 20
复制代码
















保举请利用qBittorrent,utorrent,transmission等标准BT软件下载!以获得最快速度。奉求保种!





回复

使用道具 举报

懒得打字嘛,点击右侧快捷回复 【右侧内容,后台自定义】
您需要登录后才可以回帖 登录 | 立即加入

本版积分规则

Copyright © 2024 Comsenz Inc. Powered by 蓝光电影网

本站内容由用户自主分享和转载自互联网,转载目的在于传递更多信息,并不代表本网赞同其观点和对其真实性负责。

如有侵权、违反国家法律政策行为,请联系我们,我们会第一时间及时清除和处理!

举报反馈邮箱:4k1080.com@gmail.com

快速回复 返回顶部 返回列表