找回密码

查看: 2525|回复: 3

[剧情] 独自等待[国语音轨/中英字幕].Waiting.Alone.2005.BluRay.1080p.x265.10bit-MiniHD 6.84GB

[复制链接]
蓝光币
8
发表于 2022-7-17 01:05:35 | 显示全部楼层 |阅读模式


◎标  题 单独期待
◎译  名 Waiting Alone
◎年  代 2004
◎产  地 中国大陆
◎类  别 剧情 / 笑剧 / 恋爱
◎语  言 汉语普通话
◎上映日期 2005-09-08(中国大陆) / 2004-10-26(东京电影节)
◎IMDb评分 7.2/10 (1076人评价)
◎IMDb链接 https://www.imdb.com/title/tt0311041/
◎豆瓣评分 8.2/10 (191183人评价)
◎豆瓣链接 https://movie.douban.com/subject/1308741/
◎片  长 107 分钟
◎导  演 伍仕贤 Dayyan Eng
◎编  剧 伍仕贤 Dayyan Eng
◎演  员 夏雨 Yu Xia
       李冰冰 Bingbing Li
       龚蓓苾 Beibi Gong
       高旗 Qi Gao
       吴超 Chao Wu
       高亚麟 Yalin Gao
       涂松岩 Songyan Tu
       伍仕贤 Dayyan Eng
       李丽虹 Lihong Li
       袁泉 Quan Yuan
       周润发 Yun-Fat Chow
       陈羽凡 Yufan Chen
       葛存壮 Cunzhuang Ge
       英达 Da Ying
       吴大维 David Wu
       雷恪生 Kesheng Lei
       李霞 Xia Li
       福海 Hai Fu
       伍仕贤 Dayyan Eng
       Toby Oliver Toby Oliver
       伍仕贤 Dayyan Eng
       庄志良 Thomas Chong
◎标  签 恋爱 / 青春 / 文艺 / 中国大陆 / 长大 / 笑剧 / 2005 / 剧情
◎简  介
  富贵都会当中,年轻的陈文(夏雨饰)和他的一班好友怀揣各自的胡想,整天盘桓在期待与寻觅的地平线上。在偶然相逢理想中的恋爱方针刘荣(李冰冰饰)以后,陈文渴望恋爱的豪情被瞬间扑灭。在好友们(高旗、吴超、高亚麟等饰)的各式鼓动之下,经过绰号“孙子”(涂松岩饰)的所谓“恋爱专家”点拨,陈文掉臂一切地是展出五花八门的求爱攻略,归纳出一幕幕颇具笑剧色彩的浪漫情节。但是此时,在他身旁黑暗互助的多年玩伴李静(龚蓓苾饰),却在心中冷静隐藏着对陈文的真爱。 在单独期待的人生旅途中,每一个青涩生命不竭尽力理论着胡想,在不知不觉中体味到长大的实在滋味……
  1. ##### MediaInfo ######
  2. General
  3. Unique ID                                : 224648027757832165958656741273831904285 (0xA901A2E887D12CDF9099DAF46D6E941D)
  4. Complete name                            : Waiting.Alone.2005.BluRay.1080p.x265.10bit-MiniHD.mkv
  5. Format                                   : Matroska
  6. Format version                           : Version 4
  7. File size                                : 6.84 GiB
  8. Duration                                 : 1 h 50 min
  9. Overall bit rate                         : 8 833 kb/s
  10. Encoded date                             : UTC 2018-08-29 23:25:28
  11. Writing application                      : mkvmerge v15.0.0 ('Duel with the Devil') 64-bit
  12. Writing library                          : libebml v1.3.5 + libmatroska v1.4.5
  13. Cover                                    : Yes
  14. Attachments                              : cover.jpg
  15. Video
  16. ID                                       : 1
  17. Format                                   : HEVC
  18. Format/Info                              : High Efficiency Video Coding
  19. Format profile                           : Main 10@L4.1@High
  20. Codec ID                                 : V_MPEGH/ISO/HEVC
  21. Duration                                 : 1 h 50 min
  22. Bit rate                                 : 8 065 kb/s
  23. Width                                    : 1 920 pixels
  24. Height                                   : 1 038 pixels
  25. Display aspect ratio                     : 1.85:1
  26. Frame rate mode                          : Constant
  27. Frame rate                               : 24.000 FPS
  28. Color space                              : YUV
  29. Chroma subsampling                       : 4:2:0
  30. Bit depth                                : 10 bits
  31. Bits/(Pixel*Frame)                       : 0.169
  32. Stream size                              : 6.24 GiB (91%)
  33. Language                                 : Chinese
  34. Default                                  : Yes
  35. Forced                                   : No
  36. Color range                              : Limited
  37. Color primaries                          : BT.709
  38. Audio #1
  39. ID                                       : 2
  40. Format                                   : AC-3
  41. Format/Info                              : Audio Coding 3
  42. Commercial name                          : Dolby Digital
  43. Codec ID                                 : A_AC3
  44. Duration                                 : 1 h 50 min
  45. Bit rate mode                            : Constant
  46. Bit rate                                 : 640 kb/s
  47. Channel(s)                               : 6 channels
  48. Channel layout                           : L R C LFE Ls Rs
  49. Sampling rate                            : 48.0 kHz
  50. Frame rate                               : 31.250 FPS (1536 SPF)
  51. Compression mode                         : Lossy
  52. Stream size                              : 507 MiB (7%)
  53. Language                                 : Chinese
  54. Service kind                             : Complete Main
  55. Default                                  : Yes
  56. Forced                                   : No
  57. Audio #2
  58. ID                                       : 3
  59. Format                                   : AAC LC SBR
  60. Format/Info                              : Advanced Audio Codec Low Complexity with Spectral Band Replication
  61. Commercial name                          : HE-AAC
  62. Format settings                          : Explicit
  63. Codec ID                                 : A_AAC-2
  64. Duration                                 : 1 h 50 min
  65. Bit rate                                 : 82.3 kb/s
  66. Channel(s)                               : 2 channels
  67. Channel layout                           : L R
  68. Sampling rate                            : 48.0 kHz
  69. Frame rate                               : 23.438 FPS (2048 SPF)
  70. Compression mode                         : Lossy
  71. Delay relative to video                  : 40 ms
  72. Stream size                              : 65.3 MiB (1%)
  73. Title                                    : 导评
  74. Language                                 : Chinese
  75. Default                                  : No
  76. Forced                                   : No
  77. Text #1
  78. ID                                       : 4
  79. Format                                   : PGS
  80. Muxing mode                              : zlib
  81. Codec ID                                 : S_HDMV/PGS
  82. Codec ID/Info                            : Picture based subtitle format used on BDs/HD-DVDs
  83. Duration                                 : 1 h 47 min
  84. Bit rate                                 : 37.8 kb/s
  85. Count of elements                        : 3302
  86. Stream size                              : 29.0 MiB (0%)
  87. Language                                 : Chinese
  88. Default                                  : Yes
  89. Forced                                   : No
  90. Text #2
  91. ID                                       : 5
  92. Format                                   : PGS
  93. Muxing mode                              : zlib
  94. Codec ID                                 : S_HDMV/PGS
  95. Codec ID/Info                            : Picture based subtitle format used on BDs/HD-DVDs
  96. Duration                                 : 1 h 47 min
  97. Bit rate                                 : 38.5 kb/s
  98. Count of elements                        : 3300
  99. Stream size                              : 29.6 MiB (0%)
  100. Language                                 : Chinese
  101. Default                                  : No
  102. Forced                                   : No
  103. Text #3
  104. ID                                       : 6
  105. Format                                   : PGS
  106. Muxing mode                              : zlib
  107. Codec ID                                 : S_HDMV/PGS
  108. Codec ID/Info                            : Picture based subtitle format used on BDs/HD-DVDs
  109. Duration                                 : 1 h 47 min
  110. Bit rate                                 : 35.4 kb/s
  111. Count of elements                        : 2901
  112. Stream size                              : 27.1 MiB (0%)
  113. Language                                 : English
  114. Default                                  : No
  115. Forced                                   : No
复制代码



保举请利用qBittorrent,utorrent,transmission等标准BT软件下载!以获得最快速度。奉求保种!





回复

使用道具 举报

蓝光币
234
发表于 2022-7-17 15:21:26 | 显示全部楼层
谢谢分享!!!!!!
回复

使用道具 举报

蓝光币
133
发表于 2024-4-2 09:40:35 | 显示全部楼层

楼主太厉害了!楼主,电影应该很好看我觉得蓝光电影网真是个好地方!
回复

使用道具 举报

蓝光币
12
发表于 2024-7-5 19:06:56 | 显示全部楼层

其实我一直觉得楼主的品味不错!呵呵!蓝光电影网太棒了!
回复

使用道具 举报

懒得打字嘛,点击右侧快捷回复 【右侧内容,后台自定义】
您需要登录后才可以回帖 登录 | 立即加入

本版积分规则

Archiver| |网站地图

Copyright © 2024 Comsenz Inc. Powered by 蓝光电影网

本站内容由用户自主分享和转载自互联网,转载目的在于传递更多信息,并不代表本网赞同其观点和对其真实性负责。

如有侵权、违反国家法律政策行为,请联系我们,我们会第一时间及时清除和处理!

举报反馈邮箱:4k1080.com@gmail.com

快速回复 返回顶部 返回列表