找回密码

蓝光电影网

查看: 6225|回复: 128

[2160p] 侏罗纪世界3[中英特效字幕].Jurassic.World.Dominion.2022.2160p.HEVC.WEB-DL.Atmos.DDP5.1-CHDBits 16.68GB

  [复制链接]
蓝光币
8
发表于 2022-7-17 01:10:27 | 显示全部楼层 |阅读模式
侏罗纪天下3[中英殊效字幕].Jurassic.World.Dominion.2022.2160p.HEVC.WEB-DL.Atmos.DDP5.1-CHDBits 16.68GB-1.jpeg

◎标  题 侏罗纪天下3
◎译  名 侏罗纪天下3:统治 / 侏罗纪天下:统治霸权(港) / 侏罗纪天下:统霸全国(台) / 侏罗纪公园6 / Jurassic Park 6
◎片  名 Jurassic World: Dominion
◎年  代 2022
◎产  地 美国
◎类  别 行动 / 科幻 / 冒险
◎语  言 英语
◎上映日期 2022-06-10(美国/中国大陆) / 2022-06-01(韩国)
◎IMDb评分 6.4/10 (2331人评价)
◎IMDb链接 https://www.imdb.com/title/tt8041270/
◎豆瓣链接 https://movie.douban.com/subject/26873582/
◎片  长 146分钟
◎导  演 科林·特莱沃若 Colin Trevorrow
◎编  剧 科林·特莱沃若 Colin Trevorrow
       艾米丽·卡迈克尔 Emily Carmichael
       德里克·康纳利 Derek Connolly
       迈克尔·克莱顿 Michael Crichton
◎演  员 克里斯·帕拉特 Chris Pratt
       布莱丝·达拉斯·霍华德 Bryce Dallas Howard
       山姆·尼尔 Sam Neill
       劳拉·邓恩 Laura Dern
       杰夫·高布伦 Jeff Goldblum
       伊莎贝拉·瑟蒙 Isabella Sermon
       马莫多·阿西 Mamoudou Athie
       丹妮艾拉·皮内达 Daniella Pineda
       迪辰·拉克曼 Dichen Lachman
       黄荣亮 B.D. Wong
       克里斯托弗·普拉哈 Kristoffer Polaha
       奥玛·希 Omar Sy
       贾斯蒂斯·史姑娘 Justice Smith
       坎贝尔·斯科特 Campbell Scott
       德汪达·怀斯 DeWanda Wise
       斯科特·黑兹 Scott Haze
       Freya Parker Freya Parker
       瓦拉达·塞图 Varada Sethu
       格利尼斯·戴维斯 Glynis Davies
       埃尔娃·崔尔 Elva Trill
       柯基·法尔考 Cokey Falkow
       伯纳多·桑托斯 Bernardo Santos
       迪米特里“维加斯”蒂瓦约 Dimitri 'Vegas' Thivaios
       小恩佐·斯奎利诺 Enzo Squillino Jr.
       特蕾莎·森登·加西亚 Teresa Cendon-Garcia
       杰克·约翰逊 Jake M. Johnson
       乔·阿泽帕迪 Joe Azzopardi
       帕特里克·克劳利 Patrick Crowley
       弗兰克·马歇尔 Frank Marshall
       史蒂文·斯皮尔伯格 Steven Spielberg
       科林·特莱沃若 Colin Trevorrow
       温斯顿·阿佐帕迪 Winston Azzopardi
       迈克·吉亚奇诺 Michael Giacchino
       约翰·施瓦兹曼 John Schwartzman
       马克·桑格 Mark Sanger
       妮娜·古德 Nina Gold
       凯文·詹金斯 Kevin Jenkins
       理查德·罗伯茨 Richard Roberts
◎简  介
  影片为《侏罗纪天下》系列的结束篇,故事的开篇设定在纳布拉尔岛被摧毁的四年后。现在,恐龙在天下各地与人类配合生活、配合捕猎。这一懦弱的平衡将重塑未来,并终极决议人类能否与史上最可怕生物同享这颗星球,并继续站在食品链的顶端。
  1. ##### MediaInfo ######
  2. General
  3. Unique ID                                : 18635228561702133309043922047341968269 (0xE0503B45ADE72904EB0B82B28743B8D)
  4. Complete name                            : Jurassic.World.Dominion.2022.2160p.HEVC.WEB-DL.Atmos.DDP5.1-CHDBits.mkv
  5. Format                                   : Matroska
  6. Format version                           : Version 4
  7. File size                                : 16.7 GiB
  8. Duration                                 : 2 h 26 min
  9. Overall bit rate                         : 16.3 Mb/s
  10. Encoded date                             : UTC 2022-07-15 01:31:10
  11. Writing application                      : mkvmerge v64.0.0 ('Willows') 64-bit
  12. Writing library                          : libebml v1.4.2 + libmatroska v1.6.4
  13. Video
  14. ID                                       : 1
  15. Format                                   : HEVC
  16. Format/Info                              : High Efficiency Video Coding
  17. Format profile                           : [email protected]@Main
  18. Codec ID                                 : V_MPEGH/ISO/HEVC
  19. Duration                                 : 2 h 26 min
  20. Bit rate                                 : 15.4 Mb/s
  21. Width                                    : 3 840 pixels
  22. Height                                   : 2 160 pixels
  23. Display aspect ratio                     : 16:9
  24. Frame rate mode                          : Constant
  25. Frame rate                               : 23.976 (24000/1001/53875) FPS
  26. Color space                              : YUV
  27. Chroma subsampling                       : 4:2:0
  28. Bit depth                                : 8 bits
  29. Bits/(Pixel*Frame)                       : 0.078
  30. Stream size                              : 15.8 GiB (95%)
  31. Writing library                          : x265 3.5+20-17839cc0d:[Windows][GCC 5.4.0][64 bit] 8bit+10bit
  32. Encoding settings                        : cpuid=538751111039 / frame-threads=3 / numa-pools=12 / wpp / no-pmode / no-pme / no-psnr / no-ssim / log-level=2 / input-csp=1 / input-res=3840x2160 / interlace=0 / total-frames=0 / level-idc=0 / high-tier=1 / uhd-bd=0 / ref=2 / no-allow-non-conformance / no-repeat-headers / annexb / no-aud / no-eob / no-eos / no-hrd / info / hash=0 / no-temporal-layers / open-gop / min-keyint=23 / keyint=250 / gop-lookahead=0 / bframes=4 / b-adapt=0 / b-pyramid / bframe-bias=0 / rc-lookahead=15 / lookahead-slices=8 / NTM4NzU=uuDQuD2mJt9fsCf / scenecut=40 / no-hist-scenecut / radl=0 / no-splice / no-intra-refresh / ctu=64 / min-cu-size=8 / no-rect / no-amp / max-tu-size=32 / tu-inter-depth=1 / tu-intra-depth=1 / limit-tu=0 / rdoq-level=0 / dynamic-rd=0.00 / no-ssim-rd / signhide / no-tskip / nr-intra=0 / nr-inter=0 / no-constrained-intra / strong-intra-smoothing / max-merge=2 / limit-refs=3 / no-limit-modes / me=1 / subme=1 / merange=57 / temporal-mvp / no-frame-dup / no-hme / weightp / no-weightb / no-analyze-src-pics / deblock=0:0 / sao / no-sao-non-deblock / rd=2 / selective-sao=4 / early-skip / rskip / fast-intra / no-tskip-fast / no-cu-lossless / no-b-intra / no-splitrd-skip / rdpenalty=0 / psy-rd=2.00 / psy-rdoq=0.00 / no-rd-refine / no-lossless / cbqpoffs=0 / crqpoffs=0 / rc=crf / crf=17.0 / qcomp=0.60 / qpstep=4 / stats-write=0 / stats-read=0 / ipratio=1.40 / pbratio=1.30 / aq-mode=2 / aq-strength=1.00 / cutree / zone-count=0 / no-strict-cbr / qg-size=32 / no-rc-grain / qpmax=69 / qpmin=0 / no-const-vbv / sar=1 / overscan=0 / videoformat=5 / range=0 / colorprim=2 / transfer=2 / colormatrix=2 / chromaloc=0 / display-window=0 / cll=0,0 / min-luma=0 / max-luma=255 / log2-max-poc-lsb=8 / vui-timing-info / vui-hrd-info / slices=1 / no-opt-qp-pps / no-opt-ref-list-length-pps / no-multi-pass-opt-rps / scenecut-bias=0.05 / hist-threshold=0.03 / no-opt-cu-delta-qp / no-aq-motion / no-hdr10 / no-hdr10-opt / no-dhdr10-opt / no-idr-recovery-sei / analysis-reuse-level=0 / analysis-save-reuse-level=0 / analysis-load-reuse-level=0 / scale-factor=0 / refine-intra=0 / refine-inter=0 / refine-mv=1 / refine-ctu-distortion=0 / no-limit-sao / ctu-info=0 / no-lowpass-dct / refine-analysis-type=0 / copy-pic=1 / max-ausize-factor=1.0 / no-dynamic-refine / no-single-sei / no-hevc-aq / no-svt / no-field / qp-adaptation-range=1.00 / scenecut-aware-qp=0conformance-window-offsets / right=0 / bottom=0 / NTM4NzU= / decoder-max-rate=0 / no-vbv-live-multi-pass
  33. Default                                  : Yes
  34. Forced                                   : No
  35. Color range                              : Limited
  36. Audio
  37. ID                                       : 2
  38. Format                                   : E-AC-3 JOC
  39. Format/Info                              : Enhanced AC-3 with Joint Object Coding
  40. Commercial name                          : Dolby Digital Plus with Dolby Atmos
  41. Codec ID                                 : A_EAC3
  42. Duration                                 : 2 h 26 min
  43. Bit rate mode                            : Constant
  44. Bit rate                                 : 768 kb/s
  45. Channel(s)                               : 6 channels
  46. Channel layout                           : L R C LFE Ls Rs
  47. Sampling rate                            : 48.0 kHz
  48. Frame rate                               : 31.250 FPS (1536 SPF)
  49. Bit depth                                : 32 bits
  50. Compression mode                         : Lossy
  51. Stream size                              : 807 MiB (5%)
  52. Language                                 : English
  53. Service kind                             : Complete Main
  54. Default                                  : Yes
  55. Forced                                   : No
  56. Complexity index                         : 16
  57. Number of dynamic objects                : 15
  58. Bed channel count                        : 1 channel
  59. Bed channel configuration                : LFE
  60. Text #1
  61. ID                                       : 3
  62. Format                                   : PGS
  63. Muxing mode                              : zlib
  64. Codec ID                                 : S_HDMV/PGS
  65. Codec ID/Info                            : Picture based subtitle format used on BDs/HD-DVDs
  66. Duration                                 : 2 h 17 min
  67. Bit rate                                 : 84.0 kb/s
  68. Count of elements                        : 5046
  69. Stream size                              : 82.9 MiB (0%)
  70. Title                                    : 中英殊效[email protected]
  71. Language                                 : Chinese
  72. Default                                  : Yes
  73. Forced                                   : Yes
  74. Text #2
  75. ID                                       : 4
  76. Format                                   : UTF-8
  77. Codec ID                                 : S_TEXT/UTF8
  78. Codec ID/Info                            : UTF-8 Plain Text
  79. Duration                                 : 2 h 26 min
  80. Bit rate                                 : 55 b/s
  81. Count of elements                        : 2393
  82. Stream size                              : 60.2 KiB (0%)
  83. Language                                 : English
  84. Default                                  : No
  85. Forced                                   : No
复制代码


侏罗纪天下3[中英殊效字幕].Jurassic.World.Dominion.2022.2160p.HEVC.WEB-DL.Atmos.DDP5.1-CHDBits 16.68GB-2.gif

侏罗纪天下3[中英殊效字幕].Jurassic.World.Dominion.2022.2160p.HEVC.WEB-DL.Atmos.DDP5.1-CHDBits 16.68GB-3.gif

侏罗纪天下3[中英殊效字幕].Jurassic.World.Dominion.2022.2160p.HEVC.WEB-DL.Atmos.DDP5.1-CHDBits 16.68GB-4.gif

侏罗纪天下3[中英殊效字幕].Jurassic.World.Dominion.2022.2160p.HEVC.WEB-DL.Atmos.DDP5.1-CHDBits 16.68GB-5.gif

侏罗纪天下3[中英殊效字幕].Jurassic.World.Dominion.2022.2160p.HEVC.WEB-DL.Atmos.DDP5.1-CHDBits 16.68GB-6.gif

侏罗纪天下3[中英殊效字幕].Jurassic.World.Dominion.2022.2160p.HEVC.WEB-DL.Atmos.DDP5.1-CHDBits 16.68GB-7.gif




保举请利用qBittorrent,utorrent,transmission等标准BT软件下载!以获得最快速度。奉求保种!




回复

使用道具 举报

蓝光币
21
发表于 2022-7-19 10:51:02 | 显示全部楼层
为什么说只有特定用户才能下载,充值也不行吗
回复 支持 1 反对 0

使用道具 举报

蓝光币
21
发表于 2022-7-19 10:48:50 | 显示全部楼层
楼主发贴辛苦了,谢谢楼主分享!我觉得蓝光电影网是注册对了!
回复 支持 1 反对 0

使用道具 举报

蓝光币
5
发表于 2022-7-19 10:48:20 | 显示全部楼层
thanks for sharing best new movies
回复 支持 1 反对 0

使用道具 举报

蓝光币
1191
发表于 2022-7-18 09:01:21 | 显示全部楼层
不错,收下了。
回复 支持 反对

使用道具 举报

蓝光币
666
发表于 2022-7-18 10:37:51 | 显示全部楼层

楼主太厉害了!楼主,电影应该很好看我觉得蓝光电影网真是个好地方!
回复 支持 反对

使用道具 举报

蓝光币
235
发表于 2022-7-18 10:54:03 | 显示全部楼层

既然你诚信诚意的推荐了,那我就勉为其难的看看吧!蓝光电影网不走平凡路。
回复 支持 反对

使用道具 举报

蓝光币
349
发表于 2022-7-18 10:55:42 | 显示全部楼层

感谢楼主的无私分享!要想蓝光电影网好 就靠你我他
回复 支持 反对

使用道具 举报

蓝光币
12
发表于 2022-7-18 16:02:15 | 显示全部楼层
既然你诚信诚意的推荐了,那我就勉为其难的看看吧!蓝光电影网不走平凡路
回复 支持 反对

使用道具 举报

蓝光币
0
发表于 2022-7-18 21:32:20 | 显示全部楼层
楼主发贴辛苦了,谢谢楼主分享!我觉得蓝光电影网是注册对了!
回复 支持 反对

使用道具 举报

蓝光币
210
发表于 2022-7-19 09:10:17 | 显示全部楼层
楼主发贴辛苦了,谢谢楼主分享!我觉得蓝光电影网是注册对了!
回复 支持 反对

使用道具 举报

懒得打字嘛,点击右侧快捷回复 【右侧内容,后台自定义】
您需要登录后才可以回帖 登录 | 立即加入

本版积分规则

Archiver|小黑屋| 蓝光电影网 |网站地图

Copyright © 2021 Comsenz Inc. Powered by 蓝光电影网

蓝光电影网

本站内容由用户自主分享和转载自互联网,转载目的在于传递更多信息,并不代表本网赞同其观点和对其真实性负责。

如有侵权、违反国家法律政策行为,请联系我们,我们会第一时间及时清除和处理!

举报反馈邮箱:[email protected]

快速回复 返回顶部 返回列表