找回密码

蓝光电影网

查看: 1577|回复: 2

[2160p] 蚁人[共2部合集][国英多音轨/简繁英字幕].Ant.Man.1-2.2015-2018.UHD.BluRay.2160p.2Audio.TrueHD.Atmos.7.1.x265.10bit.HDR-ALT 20.75GB

[复制链接]
蓝光币
8
发表于 2022-7-17 01:10:38 | 显示全部楼层 |阅读模式


◎标  题 蚁人
◎译  名 蚁侠(港) / Antman
◎片  名 Ant-Man
◎年  代 2015
◎产  地 美国
◎类  别 行动 / 科幻 / 冒险
◎语  言 英语
◎上映日期 2015-10-16(中国大陆) / 2015-07-17(美国)
◎IMDb评分 7.3/10 (616868人评价)
◎IMDb链接 https://www.imdb.com/title/tt0478970/
◎豆瓣评分 7.7/10 (402380人评价)
◎豆瓣链接 https://movie.douban.com/subject/1866473/
◎片  长 117分钟
◎导  演 佩顿·里德 Peyton Reed
◎编  剧 斯坦·李 Stan Lee
       杰克·科比 Jack Kirby
       拉里·利伯 Larry Lieber
       埃德加·赖特 Edgar Wright
       乔·考尼什 Joe Cornish
       亚当·麦凯 Adam McKay
       保罗·路德 Paul Rudd
◎演  员 保罗·路德 Paul Rudd
       迈克尔·道格拉斯 Michael Douglas
       伊万杰琳·莉莉 Evangeline Lilly
       寇瑞·斯托尔 Corey Stoll
       迈克尔·佩纳 Michael Peña
       大卫·达斯马齐连 David Dastmalchian
       朱迪·格雷尔 Judy Greer
       鲍比·坎纳瓦尔 Bobby Cannavale
       约翰·斯拉特里 John Slattery
       伍德·哈里斯 Wood Harris
        T.I.
       海莉·阿特维尔 Hayley Atwell
       瓦内萨·罗斯 Vanessa Ross
       马丁·唐文 Martin Donovan
       乔·克里斯特 Joe Chrest
       艾比·莱德·弗特森 Abby Ryder Fortson
       安东尼·麦凯 Anthony Mackie
       加勒特·莫里斯 Garrett Morris
       尼尔·汉博格 Neil Hamburger
       鲁德·哈利特 Rod Hallett
       斯坦·李 Stan Lee
       克里斯·埃文斯 Chris Evans
       塞巴斯蒂安·斯坦 Sebastian Stan
       内森·菲利安 Nathan Fillion
       詹迪·莫拉 Jordi Mollà
       安娜·阿卡娜 Anna Akana
       杰里米·雷·泰勒 Jeremy Ray Taylor
       赵路 Lu Zhao
       珍·路易莎·凯利 Jean Louisa Kelly
       海莉·洛维特 Hayley Lovitt
       林赛·拉罗斯 Lyndsi LaRose
       卡罗·安妮·瓦特斯 Carol Anne Watts
       达克斯·格里芬 Dax Griffin
       乔·布卡罗三世 Joe Bucaro III
       埃莫·欧文斯 Amor Owens
       黛布拉·诺顿-米勒 Debra Norton-Miller
◎标  签 漫威 / 科幻 / 美国 / 超级豪杰 / Marvel / 行动 / 2015 / 漫画改编
◎简  介
    前工程师斯科特(保罗·路德 Paul Rudd 饰)由于劫富济贫进了牢狱,出狱后的他为了争取探望女儿的权利又走上了偷盗之路。没想到一次意外的偷盗事务让他成为了新一代“蚁人”,老蚁人汉克.皮姆博士(迈克尔·道格拉斯 Michael Douglas 饰)成为了他的导师,可皮姆博士的女儿霍普(伊万杰琳·莉莉 Evangeline Lilly 饰)却并不看好他。可是危机迫在眉睫,为了对于强大的仇敌拯救天下,斯科特不能不叫来自己的一帮狐朋狗友帮助自己完成一个不成能完成的使命。而获得使命的成功也是斯科特挽回女儿的关键,屌丝能否逆袭就看最初一击。
  1. 合集文件列表:
  2. 1.Ant.Man.2015.UHD.BluRay.2160p.2Audio.TrueHD.Atmos.7.1.x265.10bit.HDR-ALT.mkv 10.60GB
  3. 2.Ant.Man.and.the.Wasp.2018.UHD.BluRay.2160p.2Audio.TrueHD.Atmos.7.1.x265.10bit.HDR-ALT.mkv 10.15GB
复制代码
  1. ##### MediaInfo ######
  2. General
  3. Unique ID                                : 275949848074019972197614492835618456137 (0xCF9A01EF2806C3C795283AF78A838249)
  4. Complete name                            : Ant.Man.2015.UHD.BluRay.2160p.2Audio.TrueHD.Atmos.7.1.x265.10bit.HDR-ALT.mkv
  5. Format                                   : Matroska
  6. Format version                           : Version 4
  7. File size                                : 10.6 GiB
  8. Duration                                 : 1 h 57 min
  9. Overall bit rate mode                    : Variable
  10. Overall bit rate                         : 13.0 Mb/s
  11. Encoded date                             : UTC 2019-10-10 04:28:54
  12. Writing application                      : mkvmerge v38.0.0 ('The Silent Type') 64-bit
  13. Writing library                          : libebml v1.3.9 + libmatroska v1.5.2
  14. Video
  15. ID                                       : 1
  16. Format                                   : HEVC
  17. Format/Info                              : High Efficiency Video Coding
  18. Format profile                           : Main 10@L5.1@High
  19. HDR format                               : SMPTE ST 2086, HDR10 compatible
  20. Codec ID                                 : V_MPEGH/ISO/HEVC
  21. Duration                                 : 1 h 57 min
  22. Bit rate                                 : 6 712 kb/s
  23. Width                                    : 3 840 pixels
  24. Height                                   : 2 076 pixels
  25. Display aspect ratio                     : 1.85:1
  26. Frame rate mode                          : Constant
  27. Frame rate                               : 23.976 (24000/1001/53875) FPS
  28. Color space                              : YUV
  29. Chroma subsampling                       : 4:2:0 (Type 2)
  30. Bit depth                                : 10 bits
  31. Bits/(Pixel*Frame)                       : 0.035
  32. Stream size                              : 5.49 GiB (52%)
  33. Title                                    : HEVC, x265Main10@L5.1@High, 24/1.001 fps @ 6711 kbps
  34. Writing library                          : x265 3.0_Au+4-dcbec33bfb0f:[Windows][GCC 8.2.1][64 bit] 10bit
  35. Encoding settings                        : cpuid=538751111039 / frame-threads=4 / numa-pools=12,12 / wpp / pmode / pme / no-psnr / no-ssim / log-level=2 / input-csp=1 / input-res=3840x2076 / interlace=0 / total-frames=168464 / level-idc=51 / high-tier=1 / uhd-bd=0 / ref=4 / no-allow-non-conformance / repeat-headers / annexb / no-aud / hrd / info / hash=0 / no-temporal-layers / no-open-gop / min-keyint=24 / keyint=240 / gop-lookahead=0 / bframes=8 / b-adapt=2 / b-pyramid / bframe-bias=0 / rc-lookahead=25 / lookahead-slices=0 / NTM4NzU=uuDQuD2mJt9fsCf / scenecut=40 / radl=0 / no-splice / no-intra-refresh / ctu=64 / min-cu-size=8 / no-rect / no-amp / max-tu-size=32 / tu-inter-depth=3 / tu-intra-depth=3 / limit-tu=4 / rdoq-level=2 / dynamic-rd=0.00 / no-ssim-rd / signhide / no-tskip / nr-intra=0 / nr-inter=0 / no-constrained-intra / no-strong-intra-smoothing / max-merge=4 / limit-refs=1 / limit-modes / me=3 / subme=4 / merange=25 / temporal-mvp / weightp / weightb / no-analyze-src-pics / deblock=-3:-3 / no-sao / no-sao-non-deblock / rd=6 / no-early-skip / rskip / no-fast-intra / no-tskip-fast / no-cu-lossless / b-intra / no-splitrd-skip / rdpenalty=0 / psy-rd=2.00 / psy-rdoq=1.00 / no-rd-refine / no-lossless / cbqpoffs=0 / crqpoffs=0 / rc=crf / crf=19.0 / qcomp=0.65 / qpstep=4 / stats-write=0 / stats-read=0 / vbv-maxrate=160000 / vbv-bufsize=160000 / vbv-init=0.9 / crf-max=0.0 / crf-min=0.0 / ipratio=1.30 / pbratio=1.20 / aq-mode=3 / aq-strength=0.85 / cutree / zone-count=0 / no-strict-cbr / qg-size=32 / no-rc-grain / qpmax=69 / qpmin=0 / no-const-vbv / sar=1 / overscan=0 / videoformat=5 / range=0 / colorprim=9 / transfer=16 / colormatrix=9 / chromaloc=1 / chromaloc-top=2 / chromaloc-bottom=2 / display-window=0 / master-display=G(13250,34500)B(7500,3000)R(34000,16000)WP(15635,16450)L(40000000,50) / max-cll=577,512 / min-luma=0 / max-luma=1023 / log2-max-poc-lsb=8 / vui-timing-info / vui-hrd-info / slices=1 / no-opt-qp-pps / no-opt-ref-list-length-pps / no-multi-pass-opt-rps / scenecut-bias=0.05 / no-opt-cu-delta-qp / no-aq-motion / hdr / hdr-opt / no-dhdr10-opt / no-idr-recovery-sei / analysis-reuse-level=5 / scale-factor=0 / refine-intra=0 / refine-inter=0 / refine-mv=0 / refine-ctu-distortion=0 / no-limit-sao / ctu-info=0 / no-lowpass-dct / refine-analysis-type=0 / copy-pic=1 / max-ausize-factor=1.0 / no-dynamic-refine / no-single-sei / no-hevc-aq / qp-adaptation-range=1.00
  36. Language                                 : English
  37. Default                                  : Yes
  38. Forced                                   : No
  39. Color range                              : Limited
  40. Color primaries                          : BT.2020
  41. Transfer characteristics                 : PQ
  42. Matrix coefficients                      : BT.2020 non-constant
  43. Mastering display color primaries        : Display P3
  44. Mastering display luminance              : min: 0.0050 cd/m2, max: 4000 cd/m2
  45. Maximum Content Light Level              : 577 cd/m2
  46. Maximum Frame-Average Light Level        : 512 cd/m2
  47. Audio #1
  48. ID                                       : 2
  49. Format                                   : MLP FBA 16-ch
  50. Format/Info                              : Meridian Lossless Packing FBA with 16-channel presentation
  51. Commercial name                          : Dolby TrueHD with Dolby Atmos
  52. Codec ID                                 : A_TRUEHD
  53. Duration                                 : 1 h 57 min
  54. Bit rate mode                            : Variable
  55. Bit rate                                 : 4 485 kb/s
  56. Maximum bit rate                         : 8 226 kb/s
  57. Channel(s)                               : 8 channels
  58. Channel layout                           : L R C LFE Ls Rs Lb Rb
  59. Sampling rate                            : 48.0 kHz
  60. Frame rate                               : 1 200.000 FPS (40 SPF)
  61. Compression mode                         : Lossless
  62. Stream size                              : 3.67 GiB (35%)
  63. Title                                    : English Dolby TrueHD 7.1 (Atmos) @ 5125 kbps
  64. Language                                 : English
  65. Default                                  : Yes
  66. Forced                                   : No
  67. Number of dynamic objects                : 13
  68. Bed channel count                        : 1 channel
  69. Bed channel configuration                : LFE
  70. Audio #2
  71. ID                                       : 3
  72. Format                                   : AC-3
  73. Format/Info                              : Audio Coding 3
  74. Commercial name                          : Dolby Digital
  75. Codec ID                                 : A_AC3
  76. Duration                                 : 1 h 57 min
  77. Bit rate mode                            : Constant
  78. Bit rate                                 : 640 kb/s
  79. Channel(s)                               : 6 channels
  80. Channel layout                           : L R C LFE Ls Rs
  81. Sampling rate                            : 48.0 kHz
  82. Frame rate                               : 31.250 FPS (1536 SPF)
  83. Compression mode                         : Lossy
  84. Stream size                              : 536 MiB (5%)
  85. Title                                    : English Dolby Digital Audio 5.1 @ 640 kbps
  86. Language                                 : English
  87. Service kind                             : Complete Main
  88. Default                                  : No
  89. Forced                                   : No
  90. Audio #3
  91. ID                                       : 4
  92. Format                                   : AC-3
  93. Format/Info                              : Audio Coding 3
  94. Commercial name                          : Dolby Digital
  95. Codec ID                                 : A_AC3
  96. Duration                                 : 1 h 57 min
  97. Bit rate mode                            : Constant
  98. Bit rate                                 : 640 kb/s
  99. Channel(s)                               : 6 channels
  100. Channel layout                           : L R C LFE Ls Rs
  101. Sampling rate                            : 48.0 kHz
  102. Frame rate                               : 31.250 FPS (1536 SPF)
  103. Compression mode                         : Lossy
  104. Stream size                              : 536 MiB (5%)
  105. Title                                    : Mandarin Dolby Digital Audio 5.1 @ 640 kbps  国语
  106. Language                                 : Chinese
  107. Service kind                             : Complete Main
  108. Default                                  : No
  109. Forced                                   : No
  110. Audio #4
  111. ID                                       : 5
  112. Format                                   : AC-3
  113. Format/Info                              : Audio Coding 3
  114. Commercial name                          : Dolby Digital
  115. Codec ID                                 : A_AC3
  116. Duration                                 : 1 h 57 min
  117. Bit rate mode                            : Constant
  118. Bit rate                                 : 320 kb/s
  119. Channel(s)                               : 2 channels
  120. Channel layout                           : L R
  121. Sampling rate                            : 48.0 kHz
  122. Frame rate                               : 31.250 FPS (1536 SPF)
  123. Compression mode                         : Lossy
  124. Stream size                              : 268 MiB (2%)
  125. Title                                    : English Dolby Digital Audio 2.0 @ 192 kbps  Commentary
  126. Language                                 : English
  127. Service kind                             : Complete Main
  128. Default                                  : No
  129. Forced                                   : No
  130. Text #1
  131. ID                                       : 6
  132. Format                                   : PGS
  133. Codec ID                                 : S_HDMV/PGS
  134. Codec ID/Info                            : Picture based subtitle format used on BDs/HD-DVDs
  135. Duration                                 : 1 h 56 min
  136. Bit rate                                 : 40.3 kb/s
  137. Count of elements                        : 3432
  138. Stream size                              : 33.6 MiB (0%)
  139. Title                                    : Eng/SUP
  140. Language                                 : English
  141. Default                                  : No
  142. Forced                                   : No
  143. Text #2
  144. ID                                       : 7
  145. Format                                   : PGS
  146. Codec ID                                 : S_HDMV/PGS
  147. Codec ID/Info                            : Picture based subtitle format used on BDs/HD-DVDs
  148. Duration                                 : 1 h 56 min
  149. Bit rate                                 : 24.0 kb/s
  150. Count of elements                        : 3294
  151. Stream size                              : 20.0 MiB (0%)
  152. Title                                    : Chs/SUP  简体
  153. Language                                 : Chinese
  154. Default                                  : Yes
  155. Forced                                   : No
  156. Text #3
  157. ID                                       : 8
  158. Format                                   : PGS
  159. Codec ID                                 : S_HDMV/PGS
  160. Codec ID/Info                            : Picture based subtitle format used on BDs/HD-DVDs
  161. Duration                                 : 1 h 56 min
  162. Bit rate                                 : 25.0 kb/s
  163. Count of elements                        : 3294
  164. Stream size                              : 20.8 MiB (0%)
  165. Title                                    : Cht/SUP  繁体
  166. Language                                 : Chinese
  167. Default                                  : No
  168. Forced                                   : No
  169. Menu
  170. 00:00:00.000                             : :绗?01 绔?
  171. 00:02:08.503                             : :绗?02 绔?
  172. 00:08:39.853                             : :绗?03 绔?
  173. 00:15:24.507                             : :绗?04 绔?
  174. 00:19:59.407                             : :绗?05 绔?
  175. 00:27:49.877                             : :绗?06 绔?
  176. 00:33:06.902                             : :绗?07 绔?
  177. 00:38:53.623                             : :绗?08 绔?
  178. 00:44:36.132                             : :绗?09 绔?
  179. 00:49:22.126                             : :绗?10 绔?
  180. 00:57:43.919                             : :绗?11 绔?
  181. 01:00:48.478                             : :绗?12 绔?
  182. 01:06:31.196                             : :绗?13 绔?
  183. 01:23:20.954                             : :绗?14 绔?
  184. 01:34:20.196                             : :绗?15 绔?
  185. 01:47:33.906                             : :绗?16 绔?
复制代码

















保举请利用qBittorrent,utorrent,transmission等标准BT软件下载!以获得最快速度。奉求保种!





回复

使用道具 举报

蓝光币
466
发表于 2022-10-30 18:22:36 | 显示全部楼层

~ 珍惜+支持 ~
回复

使用道具 举报

蓝光币
1
发表于 2023-3-30 12:57:54 | 显示全部楼层
不错,加油,加油
回复 支持 反对

使用道具 举报

懒得打字嘛,点击右侧快捷回复 【右侧内容,后台自定义】
您需要登录后才可以回帖 登录 | 立即加入

本版积分规则

Archiver|小黑屋| 蓝光电影网 |网站地图

Copyright © 2021 Comsenz Inc. Powered by 蓝光电影网

蓝光电影网

本站内容由用户自主分享和转载自互联网,转载目的在于传递更多信息,并不代表本网赞同其观点和对其真实性负责。

如有侵权、违反国家法律政策行为,请联系我们,我们会第一时间及时清除和处理!

举报反馈邮箱:4k1080.com@gmail.com

快速回复 返回顶部 返回列表