找回密码

蓝光电影网

查看: 391|回复: 6

[2160p] 七个世界,一个星球[共7部合集][简繁英字幕].BBC.Seven.Worlds.One.Planet.2019.S01.EP01-EP07.UHD.BluRay.2160p.TrueHD.Atmos.7.1.x265.10bit.HDR-ALT 66.36GB

[复制链接]
蓝光币
7
发表于 2022-7-17 19:36:49 | 显示全部楼层 |阅读模式
七个天下,一个星球[共7部合集][简繁英字幕].BBC.Seven.Worlds.One.Planet.2019.S01.EP01-EP07.UHD.BluRay.2160p.TrueHD.Atmos.7.1.x265.10bit.HDR-ALT 66.36GB-1.jpeg

◎标  题 七个天下,一个星球
◎译  名 七个天下,一颗星球 / 一颗星球:七个天下 / One Planet: Seven Worlds
◎片  名 Seven Worlds, One Planet
◎年  代 2019
◎产  地 英国
◎类  别 记载片
◎语  言 英语
◎IMDb评分 9.4/10 (4911人评价)
◎IMDb链接 https://www.imdb.com/title/tt9805708/
◎豆瓣链接 https://movie.douban.com/subject/33387353/
◎标  签 记载片 / BBC记载片 / 自然 / BBC / 庇护地球 / 动物 / 英国 / 2019
◎简  介
    数百万年前,不成思议的奇异气力将地壳撕扯得支离破裂,由此缔造出七个蔚为壮观的大陆。时光荏苒,每个大陆都孕育了别具特点的野活泼物。                                                                      从生气勃勃的南美洲森林深处到冰雪覆盖的亚洲山峦之巅,从欧洲冷冷清清的都会到非洲的广袤平原,《七个天下 一个星球》将开启一次七大洲之旅,显现匪夷所思的动物行为,报告不为人知的动物故事。我们将摸索在这七个天下,丰富多样的生命若何在地球上发展繁衍,同时揭露在人类主导的天下,动物们所面临的分歧应战。
  1. 合集文件列表:
  2. 1.BBC.Seven.Worlds.One.Planet.2019.S01.EP01.UHD.BluRay.2160p.TrueHD.Atmos.7.1.x265.10bit.HDR-ALT.mkv 8.19GB
  3. 2.BBC.Seven.Worlds.One.Planet.2019.S01.EP02.UHD.BluRay.2160p.TrueHD.Atmos.7.1.x265.10bit.HDR-ALT.mkv 9.88GB
  4. 3.BBC.Seven.Worlds.One.Planet.2019.S01.EP03.UHD.BluRay.2160p.TrueHD.Atmos.7.1.x265.10bit.HDR-ALT.mkv 11.52GB
  5. 4.BBC.Seven.Worlds.One.Planet.2019.S01.EP04.UHD.BluRay.2160p.TrueHD.Atmos.7.1.x265.10bit.HDR-ALT.mkv 8.91GB
  6. 5.BBC.Seven.Worlds.One.Planet.2019.S01.EP05.UHD.BluRay.2160p.TrueHD.Atmos.7.1.x265.10bit.HDR-ALT.mkv 8.49GB
  7. 6.BBC.Seven.Worlds.One.Planet.2019.S01.EP06.UHD.BluRay.2160p.TrueHD.Atmos.7.1.x265.10bit.HDR-ALT.mkv 10.21GB
  8. 7.BBC.Seven.Worlds.One.Planet.2019.S01.EP07.UHD.BluRay.2160p.TrueHD.Atmos.7.1.x265.10bit.HDR-ALT.mkv 9.18GB
复制代码
  1. ##### MediaInfo ######
  2. General
  3. Unique ID                                : 203906565210978172865096470508180704699 (0x9966F9D9CE30CECBE789503F51CD8DBB)
  4. Complete name                            : BBC.Seven.Worlds.One.Planet.2019.S01.EP01.UHD.BluRay.2160p.TrueHD.Atmos.7.1.x265.10bit.HDR-ALT.mkv
  5. Format                                   : Matroska
  6. Format version                           : Version 4
  7. File size                                : 8.19 GiB
  8. Duration                                 : 54 min 6 s
  9. Overall bit rate mode                    : Variable
  10. Overall bit rate                         : 21.7 Mb/s
  11. Encoded date                             : UTC 2019-12-20 03:01:36
  12. Writing application                      : mkvmerge v41.0.0 ('Smarra') 64-bit
  13. Writing library                          : libebml v1.3.9 + libmatroska v1.5.2
  14. Video
  15. ID                                       : 1
  16. Format                                   : HEVC
  17. Format/Info                              : High Efficiency Video Coding
  18. Format profile                           : Main [email protected]@High
  19. HDR format                               : SMPTE ST 2086, HDR10 compatible
  20. Codec ID                                 : V_MPEGH/ISO/HEVC
  21. Duration                                 : 54 min 6 s
  22. Bit rate                                 : 16.3 Mb/s
  23. Width                                    : 3 840 pixels
  24. Height                                   : 2 160 pixels
  25. Display aspect ratio                     : 16:9
  26. Frame rate mode                          : Constant
  27. Frame rate                               : 23.976 (24000/1001/53875) FPS
  28. Color space                              : YUV
  29. Chroma subsampling                       : 4:2:0 (Type 2)
  30. Bit depth                                : 10 bits
  31. Bits/(Pixel*Frame)                       : 0.082
  32. Stream size                              : 6.16 GiB (75%)
  33. Title                                    : HEVC, [email protected]@High, 24/1.001 fps @ 16303 kbps
  34. Writing library                          : x265 3.0_Au+4-dcbec33bfb0f:[Windows][GCC 8.2.1][64 bit] 10bit
  35. Encoding settings                        : cpuid=538751111039 / frame-threads=6 / numa-pools=44,44 / wpp / pmode / pme / no-psnr / no-ssim / log-level=2 / input-csp=1 / input-res=3840x2160 / interlace=0 / total-frames=77849 / level-idc=51 / high-tier=1 / uhd-bd=0 / ref=4 / no-allow-non-conformance / repeat-headers / annexb / no-aud / hrd / info / hash=0 / no-temporal-layers / no-open-gop / min-keyint=24 / keyint=240 / gop-lookahead=0 / bframes=8 / b-adapt=2 / b-pyramid / bframe-bias=0 / rc-lookahead=25 / lookahead-slices=0 / NTM4NzU=uuDQuD2mJt9fsCf / scenecut=40 / radl=0 / no-splice / no-intra-refresh / ctu=64 / min-cu-size=8 / no-rect / no-amp / max-tu-size=32 / tu-inter-depth=3 / tu-intra-depth=3 / limit-tu=4 / rdoq-level=2 / dynamic-rd=0.00 / no-ssim-rd / signhide / no-tskip / nr-intra=0 / nr-inter=0 / no-constrained-intra / no-strong-intra-smoothing / max-merge=4 / limit-refs=1 / limit-modes / me=3 / subme=4 / merange=25 / temporal-mvp / weightp / weightb / no-analyze-src-pics / deblock=-3:-3 / no-sao / no-sao-non-deblock / rd=6 / no-early-skip / rskip / no-fast-intra / no-tskip-fast / no-cu-lossless / b-intra / no-splitrd-skip / rdpenalty=0 / psy-rd=2.00 / psy-rdoq=1.00 / no-rd-refine / no-lossless / cbqpoffs=0 / crqpoffs=0 / rc=crf / crf=17.0 / qcomp=0.65 / qpstep=4 / stats-write=0 / stats-read=0 / vbv-maxrate=160000 / vbv-bufsize=160000 / vbv-init=0.9 / crf-max=0.0 / crf-min=0.0 / ipratio=1.30 / pbratio=1.20 / aq-mode=3 / aq-strength=0.85 / cutree / zone-count=0 / no-strict-cbr / qg-size=32 / no-rc-grain / qpmax=69 / qpmin=0 / no-const-vbv / sar=1 / overscan=0 / videoformat=5 / range=0 / colorprim=9 / transfer=16 / colormatrix=9 / chromaloc=1 / chromaloc-top=2 / chromaloc-bottom=2 / display-window=0 / master-display=G(13250,34500)B(7500,3000)R(34000,16000)WP(15635,16450)L(10000000,50) / max-cll=996,637 / min-luma=0 / max-luma=1023 / log2-max-poc-lsb=8 / vui-timing-info / vui-hrd-info / slices=1 / no-opt-qp-pps / no-opt-ref-list-length-pps / no-multi-pass-opt-rps / scenecut-bias=0.05 / no-opt-cu-delta-qp / no-aq-motion / hdr / hdr-opt / no-dhdr10-opt / no-idr-recovery-sei / analysis-reuse-level=5 / scale-factor=0 / refine-intra=0 / refine-inter=0 / refine-mv=0 / refine-ctu-distortion=0 / no-limit-sao / ctu-info=0 / no-lowpass-dct / refine-analysis-type=0 / copy-pic=1 / max-ausize-factor=1.0 / no-dynamic-refine / no-single-sei / no-hevc-aq / qp-adaptation-range=1.00
  36. Language                                 : English
  37. Default                                  : Yes
  38. Forced                                   : No
  39. Color range                              : Limited
  40. Color primaries                          : BT.2020
  41. Transfer characteristics                 : PQ
  42. Matrix coefficients                      : BT.2020 non-constant
  43. Mastering display color primaries        : Display P3
  44. Mastering display luminance              : min: 0.0050 cd/m2, max: 1000 cd/m2
  45. Maximum Content Light Level              : 996 cd/m2
  46. Maximum Frame-Average Light Level        : 637 cd/m2
  47. Audio #1
  48. ID                                       : 2
  49. Format                                   : MLP FBA 16-ch
  50. Format/Info                              : Meridian Lossless Packing FBA with 16-channel presentation
  51. Commercial name                          : Dolby TrueHD with Dolby Atmos
  52. Codec ID                                 : A_TRUEHD
  53. Duration                                 : 54 min 5 s
  54. Bit rate mode                            : Variable
  55. Bit rate                                 : 4 536 kb/s
  56. Maximum bit rate                         : 7 197 kb/s
  57. Channel(s)                               : 8 channels
  58. Channel layout                           : L R C LFE Ls Rs Lb Rb
  59. Sampling rate                            : 48.0 kHz
  60. Frame rate                               : 1 200.000 FPS (40 SPF)
  61. Compression mode                         : Lossless
  62. Stream size                              : 1.71 GiB (21%)
  63. Title                                    : English Dolby TrueHD 7.1 (Atmos) @ 4304 kbps
  64. Language                                 : English
  65. Default                                  : Yes
  66. Forced                                   : No
  67. Number of dynamic objects                : 11
  68. Bed channel count                        : 1 channel
  69. Bed channel configuration                : LFE
  70. Audio #2
  71. ID                                       : 3
  72. Format                                   : AC-3
  73. Format/Info                              : Audio Coding 3
  74. Commercial name                          : Dolby Digital
  75. Codec ID                                 : A_AC3
  76. Duration                                 : 54 min 5 s
  77. Bit rate mode                            : Constant
  78. Bit rate                                 : 640 kb/s
  79. Channel(s)                               : 6 channels
  80. Channel layout                           : L R C LFE Ls Rs
  81. Sampling rate                            : 48.0 kHz
  82. Frame rate                               : 31.250 FPS (1536 SPF)
  83. Compression mode                         : Lossy
  84. Stream size                              : 248 MiB (3%)
  85. Title                                    : English AC3 5.1-EX @ 640 kbps
  86. Language                                 : English
  87. Service kind                             : Complete Main
  88. Default                                  : No
  89. Forced                                   : No
  90. Text #1
  91. ID                                       : 4
  92. Format                                   : PGS
  93. Codec ID                                 : S_HDMV/PGS
  94. Codec ID/Info                            : Picture based subtitle format used on BDs/HD-DVDs
  95. Duration                                 : 53 min 4 s
  96. Bit rate                                 : 26.4 kb/s
  97. Count of elements                        : 756
  98. Stream size                              : 10.0 MiB (0%)
  99. Title                                    : Eng/SUP
  100. Language                                 : English
  101. Default                                  : No
  102. Forced                                   : No
  103. Text #2
  104. ID                                       : 5
  105. Format                                   : PGS
  106. Codec ID                                 : S_HDMV/PGS
  107. Codec ID/Info                            : Picture based subtitle format used on BDs/HD-DVDs
  108. Duration                                 : 53 min 4 s
  109. Bit rate                                 : 15.3 kb/s
  110. Count of elements                        : 810
  111. Stream size                              : 5.82 MiB (0%)
  112. Title                                    : Chs/SUP  简体
  113. Language                                 : Chinese
  114. Default                                  : No
  115. Forced                                   : No
  116. Text #3
  117. ID                                       : 6
  118. Format                                   : PGS
  119. Codec ID                                 : S_HDMV/PGS
  120. Codec ID/Info                            : Picture based subtitle format used on BDs/HD-DVDs
  121. Duration                                 : 53 min 4 s
  122. Bit rate                                 : 15.9 kb/s
  123. Count of elements                        : 810
  124. Stream size                              : 6.05 MiB (0%)
  125. Title                                    : Cht/SUP  繁体
  126. Language                                 : Chinese
  127. Default                                  : No
  128. Forced                                   : No
  129. Text #4
  130. ID                                       : 7
  131. Format                                   : PGS
  132. Codec ID                                 : S_HDMV/PGS
  133. Codec ID/Info                            : Picture based subtitle format used on BDs/HD-DVDs
  134. Duration                                 : 53 min 4 s
  135. Bit rate                                 : 26.9 kb/s
  136. Count of elements                        : 810
  137. Stream size                              : 10.2 MiB (0%)
  138. Title                                    : Chs/SUP  简英双语
  139. Language                                 : Chinese
  140. Default                                  : Yes
  141. Forced                                   : No
  142. Text #5
  143. ID                                       : 8
  144. Format                                   : PGS
  145. Codec ID                                 : S_HDMV/PGS
  146. Codec ID/Info                            : Picture based subtitle format used on BDs/HD-DVDs
  147. Duration                                 : 53 min 4 s
  148. Bit rate                                 : 27.5 kb/s
  149. Count of elements                        : 810
  150. Stream size                              : 10.5 MiB (0%)
  151. Title                                    : Cht/SUP  繁英双语
  152. Language                                 : Chinese
  153. Default                                  : No
  154. Forced                                   : No
  155. Menu
  156. 00:00:00.000                             : en:第 01 章
  157. 00:09:45.251                             : en:第 02 章
  158. 00:20:04.787                             : en:第 03 章
  159. 00:29:46.076                             : en:第 04 章
  160. 00:40:14.495                             : en:第 05 章
复制代码


七个天下,一个星球[共7部合集][简繁英字幕].BBC.Seven.Worlds.One.Planet.2019.S01.EP01-EP07.UHD.BluRay.2160p.TrueHD.Atmos.7.1.x265.10bit.HDR-ALT 66.36GB-2.jpeg

七个天下,一个星球[共7部合集][简繁英字幕].BBC.Seven.Worlds.One.Planet.2019.S01.EP01-EP07.UHD.BluRay.2160p.TrueHD.Atmos.7.1.x265.10bit.HDR-ALT 66.36GB-3.jpeg

七个天下,一个星球[共7部合集][简繁英字幕].BBC.Seven.Worlds.One.Planet.2019.S01.EP01-EP07.UHD.BluRay.2160p.TrueHD.Atmos.7.1.x265.10bit.HDR-ALT 66.36GB-4.jpeg

七个天下,一个星球[共7部合集][简繁英字幕].BBC.Seven.Worlds.One.Planet.2019.S01.EP01-EP07.UHD.BluRay.2160p.TrueHD.Atmos.7.1.x265.10bit.HDR-ALT 66.36GB-5.jpeg

七个天下,一个星球[共7部合集][简繁英字幕].BBC.Seven.Worlds.One.Planet.2019.S01.EP01-EP07.UHD.BluRay.2160p.TrueHD.Atmos.7.1.x265.10bit.HDR-ALT 66.36GB-6.jpeg

七个天下,一个星球[共7部合集][简繁英字幕].BBC.Seven.Worlds.One.Planet.2019.S01.EP01-EP07.UHD.BluRay.2160p.TrueHD.Atmos.7.1.x265.10bit.HDR-ALT 66.36GB-7.jpeg




保举请利用qBittorrent,utorrent,transmission等标准BT软件下载!以获得最快速度。奉求保种!




回复

使用道具 举报

蓝光币
170
发表于 2022-7-23 20:50:53 | 显示全部楼层

楼主太厉害了!楼主,电影应该很好看我觉得蓝光电影网真是个好地方!
回复 支持 反对

使用道具 举报

蓝光币
10
发表于 2022-7-27 10:03:14 | 显示全部楼层

其实我一直觉得楼主的品味不错!呵呵!蓝光电影网太棒了!
回复 支持 反对

使用道具 举报

蓝光币
170
发表于 2022-7-28 21:51:24 | 显示全部楼层

楼主太厉害了!楼主,电影应该很好看我觉得蓝光电影网真是个好地方!
回复 支持 反对

使用道具 举报

蓝光币
100
发表于 2022-8-3 11:09:13 | 显示全部楼层
楼主发贴辛苦了,谢谢楼主分享!我觉得蓝光电影网是注册对了!
回复 支持 反对

使用道具 举报

蓝光币
685
发表于 2022-8-8 20:07:55 | 显示全部楼层

既然你诚信诚意的推荐了,那我就勉为其难的看看吧!蓝光电影网不走平凡路。
回复 支持 反对

使用道具 举报

蓝光币
7
发表于 2022-8-10 15:59:52 | 显示全部楼层
楼主发贴辛苦了,谢谢楼主分享!我觉得蓝光电影网是注册对了!
回复 支持 反对

使用道具 举报

懒得打字嘛,点击右侧快捷回复 【右侧内容,后台自定义】
您需要登录后才可以回帖 登录 | 立即加入

本版积分规则

Archiver|小黑屋| 蓝光电影网 |网站地图

Copyright © 2021 Comsenz Inc. Powered by 蓝光电影网

蓝光电影网

本站内容由用户自主分享和转载自互联网,转载目的在于传递更多信息,并不代表本网赞同其观点和对其真实性负责。

如有侵权、违反国家法律政策行为,请联系我们,我们会第一时间及时清除和处理!

举报反馈邮箱:[email protected]

快速回复 返回顶部 返回列表