找回密码

蓝光电影网

查看: 408|回复: 5

[2160p] 地球脉动 第二季[共6部合集][粤英多音轨/简繁英字幕].BBC.Planet.Earth.II.2016.EP01-EP06.UHD.BluRay.2160p.2Audio.TrueHD.5.1.x265.10bit.HDR-ALT 48.63GB

[复制链接]
蓝光币
7
发表于 2022-7-17 19:36:53 | 显示全部楼层 |阅读模式
地球脉动 第二季[共6部合集][粤英多音轨/简繁英字幕].BBC.Planet.Earth.II.2016.EP01-EP06.UHD.BluRay.2160p.2Audio.TrueHD.5.1.x265.10bit.HDR-ALT 48.63GB-1.jpeg

◎标  题 地球脉动 第二季
◎译  名 行星地球 第二季 / 我们的地球 第二季 / 地球无穷 第二季 / Planet Earth II / One Planet Season 2
◎片  名 Planet Earth Season 2
◎年  代 2016
◎产  地 英国
◎类  别 记载片
◎语  言 英语
◎上映日期 2016-11-06(英国)
◎IMDb评分 9.5/10 (133010人评价)
◎IMDb链接 https://www.imdb.com/title/tt5491994/
◎豆瓣评分 9.8/10 (58570人评价)
◎豆瓣链接 https://movie.douban.com/subject/26733371/
◎片  长 50分钟
◎导  演 伊丽莎白·怀特 Elizabeth White
       贾斯汀·安德森 Justin Anderson
       艾玛·纳珀 Emma Napper
       艾德·查尔斯 Ed Charles
       查登·亨特 Chadden Hunter
       弗雷迪·德瓦斯 Fredi Devas
◎演  员 大卫·爱登堡 David Attenborough
       迈克尔·冈顿 Michael Gunton
       乔治·芬顿 George Fenton
       汉斯·季默 Hans Zimmer
◎简  介
  已经冷艳众人的记载片《地球脉动》,再次由来自BBC的建造团队倾力奉献出最新的第二季。在这一季里,观众们将继续见证地球各个角落动物、动物普通而出色的生命瞬间。本季总共六集,分为岛屿、山脉、森林、沙漠、草原和城市,树懒、巨蜥、狐猴、海鬣蜥、帽带企鹅、雪豹、金雕、蜘蛛猴、美洲豹……大自然的奇异之手缔造的万千生物以其各自的习性自幼生活在生身地盘之上。他们顺应着严苛的自然情况,顽强追逐着明日的朝阳。但是人类肆无忌惮的活动则腐蚀着其他生物的保存情况。                                    
                                它们渺小而巨大,经过BBC的镜头,生命的光辉得以放大,闪烁在地球的每一个角落。
  1. 合集文件列表:
  2. 1.BBC.Planet.Earth.II.2016.EP01.UHD.BluRay.2160p.2Audio.TrueHD.5.1.x265.10bit.HDR-ALT.mkv 8.04GB
  3. 2.BBC.Planet.Earth.II.2016.EP02.UHD.BluRay.2160p.2Audio.TrueHD.5.1.x265.10bit.HDR-ALT.mkv 7.37GB
  4. 3.BBC.Planet.Earth.II.2016.EP03.UHD.BluRay.2160p.2Audio.TrueHD.5.1.x265.10bit.HDR-ALT.mkv 9.52GB
  5. 4.BBC.Planet.Earth.II.2016.EP04.UHD.BluRay.2160p.2Audio.TrueHD.5.1.x265.10bit.HDR-ALT.mkv 6.99GB
  6. 5.BBC.Planet.Earth.II.2016.EP05.UHD.BluRay.2160p.2Audio.TrueHD.5.1.x265.10bit.HDR-ALT.mkv 9.73GB
  7. 6.BBC.Planet.Earth.II.2016.EP06.UHD.BluRay.2160p.2Audio.TrueHD.5.1.x265.10bit.HDR-ALT.mkv 6.97GB
复制代码
  1. ##### MediaInfo ######
  2. General
  3. Unique ID                                : 219865487252858200363331703149518629553 (0xA5688D74D18124E56B9C9E11CFBBAAB1)
  4. Complete name                            : BBC.Planet.Earth.II.2016.EP01.UHD.BluRay.2160p.2Audio.TrueHD.5.1.x265.10bit.HDR-ALT.mkv
  5. Format                                   : Matroska
  6. Format version                           : Version 4
  7. File size                                : 8.04 GiB
  8. Duration                                 : 53 min 7 s
  9. Overall bit rate mode                    : Variable
  10. Overall bit rate                         : 21.7 Mb/s
  11. Encoded date                             : UTC 2019-11-19 02:11:16
  12. Writing application                      : mkvmerge v40.0.0 ('Old Town Road + Pony') 64-bit
  13. Writing library                          : libebml v1.3.9 + libmatroska v1.5.2
  14. Video
  15. ID                                       : 1
  16. Format                                   : HEVC
  17. Format/Info                              : High Efficiency Video Coding
  18. Format profile                           : Main [email protected]@High
  19. HDR format                               : SMPTE ST 2086, HDR10 compatible
  20. Codec ID                                 : V_MPEGH/ISO/HEVC
  21. Duration                                 : 53 min 6 s
  22. Bit rate                                 : 18.3 Mb/s
  23. Width                                    : 3 840 pixels
  24. Height                                   : 2 160 pixels
  25. Display aspect ratio                     : 16:9
  26. Frame rate mode                          : Constant
  27. Frame rate                               : 23.976 (24000/1001/53875) FPS
  28. Color space                              : YUV
  29. Chroma subsampling                       : 4:2:0 (Type 2)
  30. Bit depth                                : 10 bits
  31. Bits/(Pixel*Frame)                       : 0.092
  32. Stream size                              : 6.77 GiB (84%)
  33. Title                                    : HEVC, [email protected]@High, 24/1.001 fps
  34. Writing library                          : x265 3.0_Au+4-dcbec33bfb0f:[Windows][GCC 8.2.1][64 bit] 10bit
  35. Encoding settings                        : cpuid=538751111039 / frame-threads=4 / numa-pools=12,12 / wpp / pmode / pme / no-psnr / no-ssim / log-level=2 / input-csp=1 / input-res=3840x2160 / interlace=0 / total-frames=76407 / level-idc=51 / high-tier=1 / uhd-bd=0 / ref=4 / no-allow-non-conformance / repeat-headers / annexb / no-aud / hrd / info / hash=0 / no-temporal-layers / no-open-gop / min-keyint=24 / keyint=240 / gop-lookahead=0 / bframes=8 / b-adapt=2 / b-pyramid / bframe-bias=0 / rc-lookahead=25 / lookahead-slices=0 / NTM4NzU=uuDQuD2mJt9fsCf / scenecut=40 / radl=0 / no-splice / no-intra-refresh / ctu=64 / min-cu-size=8 / no-rect / no-amp / max-tu-size=32 / tu-inter-depth=3 / tu-intra-depth=3 / limit-tu=4 / rdoq-level=2 / dynamic-rd=0.00 / no-ssim-rd / signhide / no-tskip / nr-intra=0 / nr-inter=0 / no-constrained-intra / no-strong-intra-smoothing / max-merge=4 / limit-refs=1 / limit-modes / me=3 / subme=4 / merange=25 / temporal-mvp / weightp / weightb / no-analyze-src-pics / deblock=-3:-3 / no-sao / no-sao-non-deblock / rd=6 / no-early-skip / rskip / no-fast-intra / no-tskip-fast / no-cu-lossless / b-intra / no-splitrd-skip / rdpenalty=0 / psy-rd=2.00 / psy-rdoq=1.00 / no-rd-refine / no-lossless / cbqpoffs=0 / crqpoffs=0 / rc=crf / crf=18.5 / qcomp=0.65 / qpstep=4 / stats-write=0 / stats-read=0 / vbv-maxrate=160000 / vbv-bufsize=160000 / vbv-init=0.9 / crf-max=0.0 / crf-min=0.0 / ipratio=1.30 / pbratio=1.20 / aq-mode=3 / aq-strength=0.85 / cutree / zone-count=0 / no-strict-cbr / qg-size=32 / no-rc-grain / qpmax=69 / qpmin=0 / no-const-vbv / sar=1 / overscan=0 / videoformat=5 / range=0 / colorprim=9 / transfer=16 / colormatrix=9 / chromaloc=1 / chromaloc-top=2 / chromaloc-bottom=2 / display-window=0 / master-display=G(13250,34500)B(7500,3000)R(34000,16000)WP(15635,16450)L(0,0) / max-cll=0,0 / min-luma=0 / max-luma=1023 / log2-max-poc-lsb=8 / vui-timing-info / vui-hrd-info / slices=1 / no-opt-qp-pps / no-opt-ref-list-length-pps / no-multi-pass-opt-rps / scenecut-bias=0.05 / no-opt-cu-delta-qp / no-aq-motion / hdr / hdr-opt / no-dhdr10-opt / no-idr-recovery-sei / analysis-reuse-level=5 / scale-factor=0 / refine-intra=0 / refine-inter=0 / refine-mv=0 / refine-ctu-distortion=0 / no-limit-sao / ctu-info=0 / no-lowpass-dct / refine-analysis-type=0 / copy-pic=1 / max-ausize-factor=1.0 / no-dynamic-refine / no-single-sei / no-hevc-aq / qp-adaptation-range=1.00
  36. Language                                 : English
  37. Default                                  : Yes
  38. Forced                                   : No
  39. Color range                              : Limited
  40. Color primaries                          : BT.2020
  41. Transfer characteristics                 : PQ
  42. Matrix coefficients                      : BT.2020 non-constant
  43. Mastering display color primaries        : Display P3
  44. Mastering display luminance              : min: 0.0000 cd/m2, max: 0 cd/m2
  45. Audio #1
  46. ID                                       : 2
  47. Format                                   : MLP FBA
  48. Format/Info                              : Meridian Lossless Packing FBA
  49. Commercial name                          : Dolby TrueHD
  50. Codec ID                                 : A_TRUEHD
  51. Duration                                 : 53 min 4 s
  52. Bit rate mode                            : Variable
  53. Bit rate                                 : 1 735 kb/s
  54. Maximum bit rate                         : 2 670 kb/s
  55. Channel(s)                               : 6 channels
  56. Channel layout                           : L R C LFE Ls Rs
  57. Sampling rate                            : 48.0 kHz
  58. Frame rate                               : 1 200.000 FPS (40 SPF)
  59. Compression mode                         : Lossless
  60. Stream size                              : 659 MiB (8%)
  61. Title                                    : English Dolby TrueHD Audio 5.1 @ 2145?kbps
  62. Language                                 : English
  63. Default                                  : Yes
  64. Forced                                   : No
  65. Audio #2
  66. ID                                       : 3
  67. Format                                   : AC-3
  68. Format/Info                              : Audio Coding 3
  69. Commercial name                          : Dolby Digital
  70. Codec ID                                 : A_AC3
  71. Duration                                 : 53 min 4 s
  72. Bit rate mode                            : Constant
  73. Bit rate                                 : 448 kb/s
  74. Channel(s)                               : 6 channels
  75. Channel layout                           : L R C LFE Ls Rs
  76. Sampling rate                            : 48.0 kHz
  77. Frame rate                               : 31.250 FPS (1536 SPF)
  78. Compression mode                         : Lossy
  79. Stream size                              : 170 MiB (2%)
  80. Title                                    : English Dolby Digital Audio 5.1 @ 448 kbps
  81. Language                                 : English
  82. Service kind                             : Complete Main
  83. Default                                  : No
  84. Forced                                   : No
  85. Audio #3
  86. ID                                       : 4
  87. Format                                   : MLP FBA
  88. Format/Info                              : Meridian Lossless Packing FBA
  89. Commercial name                          : Dolby TrueHD
  90. Codec ID                                 : A_TRUEHD
  91. Duration                                 : 53 min 7 s
  92. Bit rate mode                            : Variable
  93. Bit rate                                 : 815 kb/s
  94. Maximum bit rate                         : 1 191 kb/s
  95. Channel(s)                               : 2 channels
  96. Channel layout                           : L R
  97. Sampling rate                            : 48.0 kHz
  98. Frame rate                               : 1 200.000 FPS (40 SPF)
  99. Compression mode                         : Lossless
  100. Stream size                              : 310 MiB (4%)
  101. Title                                    : Cantonese Dolby TrueHD Audio 2.0 @ 1008?kbps  粤语
  102. Language                                 : Chinese
  103. Default                                  : No
  104. Forced                                   : No
  105. Audio #4
  106. ID                                       : 5
  107. Format                                   : AC-3
  108. Format/Info                              : Audio Coding 3
  109. Commercial name                          : Dolby Digital
  110. Codec ID                                 : A_AC3
  111. Duration                                 : 53 min 7 s
  112. Bit rate mode                            : Constant
  113. Bit rate                                 : 224 kb/s
  114. Channel(s)                               : 2 channels
  115. Channel layout                           : L R
  116. Sampling rate                            : 48.0 kHz
  117. Frame rate                               : 31.250 FPS (1536 SPF)
  118. Compression mode                         : Lossy
  119. Stream size                              : 85.1 MiB (1%)
  120. Title                                    : Cantonese Dolby Digital Audio 5.1 @ 224 kbps 粤语
  121. Language                                 : Chinese
  122. Service kind                             : Complete Main
  123. Default                                  : No
  124. Forced                                   : No
  125. Text #1
  126. ID                                       : 6
  127. Format                                   : PGS
  128. Codec ID                                 : S_HDMV/PGS
  129. Codec ID/Info                            : Picture based subtitle format used on BDs/HD-DVDs
  130. Duration                                 : 52 min 14 s
  131. Bit rate                                 : 26.3 kb/s
  132. Count of elements                        : 868
  133. Stream size                              : 9.84 MiB (0%)
  134. Title                                    : Cht/SUP  原盘繁体
  135. Language                                 : Chinese
  136. Default                                  : No
  137. Forced                                   : No
  138. Text #2
  139. ID                                       : 7
  140. Format                                   : PGS
  141. Codec ID                                 : S_HDMV/PGS
  142. Codec ID/Info                            : Picture based subtitle format used on BDs/HD-DVDs
  143. Duration                                 : 52 min 14 s
  144. Bit rate                                 : 26.1 kb/s
  145. Count of elements                        : 868
  146. Stream size                              : 9.74 MiB (0%)
  147. Title                                    : Chs/SUP  原盘简体
  148. Language                                 : Chinese
  149. Default                                  : Yes
  150. Forced                                   : No
  151. Text #3
  152. ID                                       : 8
  153. Format                                   : PGS
  154. Codec ID                                 : S_HDMV/PGS
  155. Codec ID/Info                            : Picture based subtitle format used on BDs/HD-DVDs
  156. Duration                                 : 52 min 14 s
  157. Bit rate                                 : 28.2 kb/s
  158. Count of elements                        : 862
  159. Stream size                              : 10.5 MiB (0%)
  160. Title                                    : Eng/SUP
  161. Language                                 : English
  162. Default                                  : No
  163. Forced                                   : No
  164. Menu
  165. 00:00:00.000                             : en:第 01 章
  166. 00:12:27.246                             : en:第 02 章
  167. 00:18:50.254                             : en:第 03 章
  168. 00:33:45.941                             : en:第 04 章
  169. 00:43:05.541                             : en:第 05 章
  170. 00:52:26.810                             : en:第 06 章
复制代码


地球脉动 第二季[共6部合集][粤英多音轨/简繁英字幕].BBC.Planet.Earth.II.2016.EP01-EP06.UHD.BluRay.2160p.2Audio.TrueHD.5.1.x265.10bit.HDR-ALT 48.63GB-2.jpeg

地球脉动 第二季[共6部合集][粤英多音轨/简繁英字幕].BBC.Planet.Earth.II.2016.EP01-EP06.UHD.BluRay.2160p.2Audio.TrueHD.5.1.x265.10bit.HDR-ALT 48.63GB-3.jpeg

地球脉动 第二季[共6部合集][粤英多音轨/简繁英字幕].BBC.Planet.Earth.II.2016.EP01-EP06.UHD.BluRay.2160p.2Audio.TrueHD.5.1.x265.10bit.HDR-ALT 48.63GB-4.jpeg

地球脉动 第二季[共6部合集][粤英多音轨/简繁英字幕].BBC.Planet.Earth.II.2016.EP01-EP06.UHD.BluRay.2160p.2Audio.TrueHD.5.1.x265.10bit.HDR-ALT 48.63GB-5.jpeg

地球脉动 第二季[共6部合集][粤英多音轨/简繁英字幕].BBC.Planet.Earth.II.2016.EP01-EP06.UHD.BluRay.2160p.2Audio.TrueHD.5.1.x265.10bit.HDR-ALT 48.63GB-6.jpeg

地球脉动 第二季[共6部合集][粤英多音轨/简繁英字幕].BBC.Planet.Earth.II.2016.EP01-EP06.UHD.BluRay.2160p.2Audio.TrueHD.5.1.x265.10bit.HDR-ALT 48.63GB-7.jpeg




保举请利用qBittorrent,utorrent,transmission等标准BT软件下载!以获得最快速度。奉求保种!




回复

使用道具 举报

蓝光币
283
发表于 2022-7-17 21:16:57 | 显示全部楼层
楼主发贴辛苦了,谢谢楼主分享!我觉得蓝光电影网是注册对了!
回复 支持 反对

使用道具 举报

蓝光币
56
发表于 2022-7-20 09:30:13 | 显示全部楼层

楼主太厉害了!楼主,电影应该很好看我觉得蓝光电影网真是个好地方!
回复 支持 反对

使用道具 举报

蓝光币
170
发表于 2022-7-23 20:52:20 | 显示全部楼层

楼主太厉害了!楼主,电影应该很好看我觉得蓝光电影网真是个好地方!
回复 支持 反对

使用道具 举报

蓝光币
170
发表于 2022-7-26 09:07:21 | 显示全部楼层
楼主发贴辛苦了,谢谢楼主分享!我觉得蓝光电影网是注册对了!
回复 支持 反对

使用道具 举报

蓝光币
2
发表于 2022-8-2 01:59:35 | 显示全部楼层
辛苦楼主分享了!很棒的一部高清纪录片!值得一看!
回复 支持 反对

使用道具 举报

懒得打字嘛,点击右侧快捷回复 【右侧内容,后台自定义】
您需要登录后才可以回帖 登录 | 立即加入

本版积分规则

Archiver|小黑屋| 蓝光电影网 |网站地图

Copyright © 2021 Comsenz Inc. Powered by 蓝光电影网

蓝光电影网

本站内容由用户自主分享和转载自互联网,转载目的在于传递更多信息,并不代表本网赞同其观点和对其真实性负责。

如有侵权、违反国家法律政策行为,请联系我们,我们会第一时间及时清除和处理!

举报反馈邮箱:[email protected]

快速回复 返回顶部 返回列表