找回密码

蓝光电影网

查看: 757|回复: 12

[2160p] 王朝 第一季[共5部合集][简繁英字幕].BBC.Dynasties.2018.S01.EP01-EP05.UHD.BluRay.2160p.TrueHD.Atmos.7.1.x265.10bit.HDR-ALT 52.12GB

[复制链接]
蓝光币
7
发表于 2022-7-17 19:36:58 | 显示全部楼层 |阅读模式
王朝 第一季[共5部合集][简繁英字幕].BBC.Dynasties.2018.S01.EP01-EP05.UHD.BluRay.2160p.TrueHD.Atmos.7.1.x265.10bit.HDR-ALT 52.12GB-1.jpeg

◎标  题 王朝 第一季
◎译  名 The Rise and Fall of Animal Families
◎片  名 Dynasties
◎年  代 2018
◎产  地 英国
◎类  别 记载片
◎语  言 汉语普通话 / 英语
◎上映日期 2018年11月11日
◎IMDb评分 9.1/10 (4033人评价)
◎IMDb链接 https://www.imdb.com/title/tt9130692/
◎豆瓣评分 9.5/10 (35999人评价)
◎豆瓣链接 https://movie.douban.com/subject/27182707/
◎片  长 60 分钟
◎导  演 斯蒂芬·莫斯
◎演  员 大卫·爱登堡
◎简  介
  西非撒哈拉沙漠边境,统治族群长达三年之久的黑猩猩戴维面临其他雄性的应战,为了守住王权,他起头挑选缔盟。而当遭到围攻后,这位不死的王者又决然决然踏上夺回王位的复仇之路。南极大陆,数千只帝企鹅爸爸团圆一路,与极为严寒的永夜作抗争。他们期待新生命的诞生,期待 爱人的归来。肯尼亚草原,雌狮查姆竭尽尽力保护族群,在庞大的灾难眼前,他必须面临生死生死的考验。津巴布韦国家公园,老迈的三色狼泰特渐感力有未逮,她对家属的控制力逐步削弱,而她的女儿正在突起,觊觎着母亲的皇位。印度,雌虎拉杰贝拉靠一己之力捕捉猎物,哺育四个孩子,可是大自然从不是以对她慈善半分。
  1. 合集文件列表:
  2. 1.BBC.Dynasties.2018.S01.EP01.UHD.BluRay.2160p.TrueHD.Atmos.7.1.x265.10bit.HDR-ALT.mkv 11.25GB
  3. 2.BBC.Dynasties.2018.S01.EP02.UHD.BluRay.2160p.TrueHD.Atmos.7.1.x265.10bit.HDR-ALT.mkv 6.68GB
  4. 3.BBC.Dynasties.2018.S01.EP03.UHD.BluRay.2160p.TrueHD.Atmos.7.1.x265.10bit.HDR-ALT.mkv 12.61GB
  5. 4.BBC.Dynasties.2018.S01.EP04.UHD.BluRay.2160p.TrueHD.Atmos.7.1.x265.10bit.HDR-ALT.mkv 10.77GB
  6. 5.BBC.Dynasties.2018.S01.EP05.UHD.BluRay.2160p.TrueHD.Atmos.7.1.x265.10bit.HDR-ALT.mkv 10.82GB
复制代码
  1. ##### MediaInfo ######
  2. General
  3. Unique ID                                : 54735028252984314694231967952323127151 (0x292D953EF58AD77749CA6F66B6D6A76F)
  4. Complete name                            : BBC.Dynasties.2018.S01.EP01.UHD.BluRay.2160p.TrueHD.Atmos.7.1.x265.10bit.HDR-ALT.mkv
  5. Format                                   : Matroska
  6. Format version                           : Version 4
  7. File size                                : 11.2 GiB
  8. Duration                                 : 52 min 59 s
  9. Overall bit rate mode                    : Variable
  10. Overall bit rate                         : 30.4 Mb/s
  11. Encoded date                             : UTC 2020-01-10 01:29:07
  12. Writing application                      : mkvmerge v42.0.0 ('Overtime') 64-bit
  13. Writing library                          : libebml v1.3.10 + libmatroska v1.5.2
  14. Video
  15. ID                                       : 1
  16. Format                                   : HEVC
  17. Format/Info                              : High Efficiency Video Coding
  18. Format profile                           : Main [email protected]@High
  19. HDR format                               : SMPTE ST 2086, HDR10 compatible
  20. Codec ID                                 : V_MPEGH/ISO/HEVC
  21. Duration                                 : 52 min 59 s
  22. Bit rate                                 : 24.9 Mb/s
  23. Width                                    : 3 840 pixels
  24. Height                                   : 2 160 pixels
  25. Display aspect ratio                     : 16:9
  26. Frame rate mode                          : Constant
  27. Frame rate                               : 23.976 (24000/1001/53875) FPS
  28. Color space                              : YUV
  29. Chroma subsampling                       : 4:2:0 (Type 2)
  30. Bit depth                                : 10 bits
  31. Bits/(Pixel*Frame)                       : 0.125
  32. Stream size                              : 9.20 GiB (82%)
  33. Title                                    : HEVC, [email protected]@High, 24/1.001 fps @ 24849 kbps
  34. Writing library                          : x265 3.0_Au+4-dcbec33bfb0f:[Windows][GCC 8.2.1][64 bit] 10bit
  35. Encoding settings                        : cpuid=538751111039 / frame-threads=4 / numa-pools=16 / wpp / pmode / pme / no-psnr / no-ssim / log-level=2 / input-csp=1 / input-res=3840x2160 / interlace=0 / total-frames=76223 / level-idc=51 / high-tier=1 / uhd-bd=0 / ref=4 / no-allow-non-conformance / repeat-headers / annexb / no-aud / hrd / info / hash=0 / no-temporal-layers / no-open-gop / min-keyint=24 / keyint=240 / gop-lookahead=0 / bframes=8 / b-adapt=2 / b-pyramid / bframe-bias=0 / rc-lookahead=25 / lookahead-slices=0 / NTM4NzU=uuDQuD2mJt9fsCf / scenecut=40 / radl=0 / no-splice / no-intra-refresh / ctu=64 / min-cu-size=8 / no-rect / no-amp / max-tu-size=32 / tu-inter-depth=3 / tu-intra-depth=3 / limit-tu=4 / rdoq-level=2 / dynamic-rd=0.00 / no-ssim-rd / signhide / no-tskip / nr-intra=0 / nr-inter=0 / no-constrained-intra / no-strong-intra-smoothing / max-merge=4 / limit-refs=1 / limit-modes / me=3 / subme=4 / merange=25 / temporal-mvp / weightp / weightb / no-analyze-src-pics / deblock=-3:-3 / no-sao / no-sao-non-deblock / rd=6 / no-early-skip / rskip / no-fast-intra / no-tskip-fast / no-cu-lossless / b-intra / no-splitrd-skip / rdpenalty=0 / psy-rd=2.00 / psy-rdoq=1.00 / no-rd-refine / no-lossless / cbqpoffs=0 / crqpoffs=0 / rc=crf / crf=17.0 / qcomp=0.65 / qpstep=4 / stats-write=0 / stats-read=0 / vbv-maxrate=160000 / vbv-bufsize=160000 / vbv-init=0.9 / crf-max=0.0 / crf-min=0.0 / ipratio=1.30 / pbratio=1.20 / aq-mode=3 / aq-strength=0.85 / cutree / zone-count=0 / no-strict-cbr / qg-size=32 / no-rc-grain / qpmax=69 / qpmin=0 / no-const-vbv / sar=1 / overscan=0 / videoformat=5 / range=0 / colorprim=9 / transfer=16 / colormatrix=9 / chromaloc=1 / chromaloc-top=2 / chromaloc-bottom=2 / display-window=0 / master-display=G(13250,34500)B(7500,3000)R(34000,16000)WP(15635,16450)L(10000000,50) / max-cll=1019,278 / min-luma=0 / max-luma=1023 / log2-max-poc-lsb=8 / vui-timing-info / vui-hrd-info / slices=1 / no-opt-qp-pps / no-opt-ref-list-length-pps / no-multi-pass-opt-rps / scenecut-bias=0.05 / no-opt-cu-delta-qp / no-aq-motion / hdr / hdr-opt / no-dhdr10-opt / no-idr-recovery-sei / analysis-reuse-level=5 / scale-factor=0 / refine-intra=0 / refine-inter=0 / refine-mv=0 / refine-ctu-distortion=0 / no-limit-sao / ctu-info=0 / no-lowpass-dct / refine-analysis-type=0 / copy-pic=1 / max-ausize-factor=1.0 / no-dynamic-refine / no-single-sei / no-hevc-aq / qp-adaptation-range=1.00
  36. Language                                 : English
  37. Default                                  : Yes
  38. Forced                                   : No
  39. Color range                              : Limited
  40. Color primaries                          : BT.2020
  41. Transfer characteristics                 : PQ
  42. Matrix coefficients                      : BT.2020 non-constant
  43. Mastering display color primaries        : Display P3
  44. Mastering display luminance              : min: 0.0050 cd/m2, max: 1000 cd/m2
  45. Maximum Content Light Level              : 1019 cd/m2
  46. Maximum Frame-Average Light Level        : 278 cd/m2
  47. Audio #1
  48. ID                                       : 2
  49. Format                                   : MLP FBA 16-ch
  50. Format/Info                              : Meridian Lossless Packing FBA with 16-channel presentation
  51. Commercial name                          : Dolby TrueHD with Dolby Atmos
  52. Codec ID                                 : A_TRUEHD
  53. Duration                                 : 52 min 59 s
  54. Bit rate mode                            : Variable
  55. Bit rate                                 : 4 760 kb/s
  56. Maximum bit rate                         : 7 110 kb/s
  57. Channel(s)                               : 8 channels
  58. Channel layout                           : L R C LFE Ls Rs Lb Rb
  59. Sampling rate                            : 48.0 kHz
  60. Frame rate                               : 1 200.000 FPS (40 SPF)
  61. Compression mode                         : Lossless
  62. Stream size                              : 1.76 GiB (16%)
  63. Title                                    : English Dolby TrueHD 7.1 (Atmos) @ 5040 kbps
  64. Language                                 : English
  65. Default                                  : Yes
  66. Forced                                   : No
  67. Number of dynamic objects                : 11
  68. Bed channel count                        : 1 channel
  69. Bed channel configuration                : LFE
  70. Audio #2
  71. ID                                       : 3
  72. Format                                   : AC-3
  73. Format/Info                              : Audio Coding 3
  74. Commercial name                          : Dolby Digital
  75. Codec ID                                 : A_AC3
  76. Duration                                 : 52 min 59 s
  77. Bit rate mode                            : Constant
  78. Bit rate                                 : 640 kb/s
  79. Channel(s)                               : 6 channels
  80. Channel layout                           : L R C LFE Ls Rs
  81. Sampling rate                            : 48.0 kHz
  82. Frame rate                               : 31.250 FPS (1536 SPF)
  83. Compression mode                         : Lossy
  84. Stream size                              : 243 MiB (2%)
  85. Title                                    : English Dolby Digital Audio 5.1 @ 640 kbps
  86. Language                                 : English
  87. Service kind                             : Complete Main
  88. Default                                  : No
  89. Forced                                   : No
  90. Text #1
  91. ID                                       : 4
  92. Format                                   : PGS
  93. Codec ID                                 : S_HDMV/PGS
  94. Codec ID/Info                            : Picture based subtitle format used on BDs/HD-DVDs
  95. Duration                                 : 52 min 20 s
  96. Bit rate                                 : 17.2 kb/s
  97. Count of elements                        : 594
  98. Stream size                              : 6.43 MiB (0%)
  99. Title                                    : Eng/SUP
  100. Language                                 : English
  101. Default                                  : No
  102. Forced                                   : No
  103. Text #2
  104. ID                                       : 5
  105. Format                                   : PGS
  106. Codec ID                                 : S_HDMV/PGS
  107. Codec ID/Info                            : Picture based subtitle format used on BDs/HD-DVDs
  108. Duration                                 : 52 min 2 s
  109. Bit rate                                 : 9 003 b/s
  110. Count of elements                        : 490
  111. Stream size                              : 3.35 MiB (0%)
  112. Title                                    : Chs/SUP  简体
  113. Language                                 : Chinese
  114. Default                                  : No
  115. Forced                                   : No
  116. Text #3
  117. ID                                       : 6
  118. Format                                   : PGS
  119. Codec ID                                 : S_HDMV/PGS
  120. Codec ID/Info                            : Picture based subtitle format used on BDs/HD-DVDs
  121. Duration                                 : 52 min 2 s
  122. Bit rate                                 : 9 515 b/s
  123. Count of elements                        : 490
  124. Stream size                              : 3.54 MiB (0%)
  125. Title                                    : Cht/SUP  繁体
  126. Language                                 : Chinese
  127. Default                                  : No
  128. Forced                                   : No
  129. Text #4
  130. ID                                       : 7
  131. Format                                   : PGS
  132. Codec ID                                 : S_HDMV/PGS
  133. Codec ID/Info                            : Picture based subtitle format used on BDs/HD-DVDs
  134. Duration                                 : 52 min 2 s
  135. Bit rate                                 : 14.9 kb/s
  136. Count of elements                        : 490
  137. Stream size                              : 5.56 MiB (0%)
  138. Title                                    : Chs/SUP  简英双语
  139. Language                                 : Chinese
  140. Default                                  : Yes
  141. Forced                                   : No
  142. Text #5
  143. ID                                       : 8
  144. Format                                   : PGS
  145. Codec ID                                 : S_HDMV/PGS
  146. Codec ID/Info                            : Picture based subtitle format used on BDs/HD-DVDs
  147. Duration                                 : 52 min 2 s
  148. Bit rate                                 : 15.5 kb/s
  149. Count of elements                        : 490
  150. Stream size                              : 5.75 MiB (0%)
  151. Title                                    : Cht/SUP  繁英双语
  152. Language                                 : Chinese
  153. Default                                  : No
  154. Forced                                   : No
  155. Menu
  156. 00:00:00.000                             : en:第 01 章
  157. 00:10:34.300                             : en:第 02 章
  158. 00:20:53.961                             : en:第 03 章
  159. 00:31:33.558                             : en:第 04 章
  160. 00:41:35.451                             : en:第 05 章
  161. 00:51:56.572                             : en:第 06 章
复制代码


王朝 第一季[共5部合集][简繁英字幕].BBC.Dynasties.2018.S01.EP01-EP05.UHD.BluRay.2160p.TrueHD.Atmos.7.1.x265.10bit.HDR-ALT 52.12GB-2.jpeg

王朝 第一季[共5部合集][简繁英字幕].BBC.Dynasties.2018.S01.EP01-EP05.UHD.BluRay.2160p.TrueHD.Atmos.7.1.x265.10bit.HDR-ALT 52.12GB-3.jpeg

王朝 第一季[共5部合集][简繁英字幕].BBC.Dynasties.2018.S01.EP01-EP05.UHD.BluRay.2160p.TrueHD.Atmos.7.1.x265.10bit.HDR-ALT 52.12GB-4.jpeg

王朝 第一季[共5部合集][简繁英字幕].BBC.Dynasties.2018.S01.EP01-EP05.UHD.BluRay.2160p.TrueHD.Atmos.7.1.x265.10bit.HDR-ALT 52.12GB-5.jpeg

王朝 第一季[共5部合集][简繁英字幕].BBC.Dynasties.2018.S01.EP01-EP05.UHD.BluRay.2160p.TrueHD.Atmos.7.1.x265.10bit.HDR-ALT 52.12GB-6.jpeg

王朝 第一季[共5部合集][简繁英字幕].BBC.Dynasties.2018.S01.EP01-EP05.UHD.BluRay.2160p.TrueHD.Atmos.7.1.x265.10bit.HDR-ALT 52.12GB-7.jpeg




保举请利用qBittorrent,utorrent,transmission等标准BT软件下载!以获得最快速度。奉求保种!




回复

使用道具 举报

蓝光币
78
发表于 2022-7-18 09:09:15 | 显示全部楼层

这东西我收了!谢谢楼主!蓝光电影网真好!
回复 支持 反对

使用道具 举报

蓝光币
30
发表于 2022-7-19 12:26:51 | 显示全部楼层

感谢楼主的无私分享!要想蓝光电影网好 就靠你我他
回复 支持 反对

使用道具 举报

蓝光币
30
发表于 2022-7-19 12:27:01 | 显示全部楼层

楼主,大恩不言谢了!蓝光电影网是最棒的!
回复 支持 反对

使用道具 举报

蓝光币
57
发表于 2022-7-20 13:55:18 | 显示全部楼层
不错,蓝光电影网是最棒
回复 支持 反对

使用道具 举报

蓝光币
164
发表于 2022-7-21 14:09:16 | 显示全部楼层
楼主发贴辛苦了,谢谢楼主分享!我觉得蓝光电影网是注册对了!
回复 支持 反对

使用道具 举报

蓝光币
33
发表于 2022-7-26 21:18:25 | 显示全部楼层
楼主发贴辛苦了,谢谢楼主分享!我觉得蓝光电影网是注册对了!
回复 支持 反对

使用道具 举报

蓝光币
12
发表于 2022-7-28 18:49:20 | 显示全部楼层

论坛不能没有像楼主这样的人才啊!我会一直支持蓝光电影网。
回复 支持 反对

使用道具 举报

蓝光币
30
发表于 2022-7-29 23:03:02 | 显示全部楼层
楼主发贴辛苦了,谢谢楼主分享!我觉得蓝光电影网是注册对了!
回复 支持 反对

使用道具 举报

蓝光币
52
发表于 2022-7-31 22:30:34 | 显示全部楼层

这东西我收了!谢谢楼主!蓝光电影网真好!
回复 支持 反对

使用道具 举报

懒得打字嘛,点击右侧快捷回复 【右侧内容,后台自定义】
您需要登录后才可以回帖 登录 | 立即加入

本版积分规则

Archiver|小黑屋| 蓝光电影网 |网站地图

Copyright © 2021 Comsenz Inc. Powered by 蓝光电影网

蓝光电影网

本站内容由用户自主分享和转载自互联网,转载目的在于传递更多信息,并不代表本网赞同其观点和对其真实性负责。

如有侵权、违反国家法律政策行为,请联系我们,我们会第一时间及时清除和处理!

举报反馈邮箱:[email protected]

快速回复 返回顶部 返回列表