找回密码

蓝光电影网

查看: 483|回复: 10

[2160p] 蓝色星球2[共7部合集][简繁英字幕].BBC.Blue.Planet.II.2017.EP01-EP07.UHD.BluRay.2160p.DTS-HD.MA.5.1.x265.10bit.HDR-ALT 50.42GB

[复制链接]
蓝光币
7
发表于 2022-7-17 19:37:00 | 显示全部楼层 |阅读模式
蓝色星球2[共7部合集][简繁英字幕].BBC.Blue.Planet.II.2017.EP01-EP07.UHD.BluRay.2160p.DTS-HD.MA.5.1.x265.10bit.HDR-ALT 50.42GB-1.jpeg

◎标  题 蓝色星球2
◎译  名 蓝色星球 第二季
◎片  名 Blue Planet II
◎年  代 2017
◎产  地 英国
◎类  别 记载片
◎语  言 英语
◎上映日期 2017-10-30(中国大陆) / 2017-10-29(英国)
◎IMDb评分 9.3/10 (37335人评价)
◎IMDb链接 https://www.imdb.com/title/tt6769208/
◎豆瓣评分 9.8/10 (37126人评价)
◎豆瓣链接 https://movie.douban.com/subject/26979545/
◎片  长 60分钟
◎导  演 詹姆斯·霍尼伯内 James Honeyborne
◎演  员 大卫·爱登堡 David Attenborough
       詹姆斯·霍尼伯内 James Honeyborne
       马克·布朗罗 Mark Brownlow
       奥拉·多尔蒂 Orla Doherty
       乔治·芬顿 George Fenton
       汉斯·季默 Hans Zimmer
       大卫·佛莱明 David Fleming
       罗杰·霍洛克 Roger Horrocks
◎标  签 记载片 / BBC / 陆地 / 蓝色星球 / 自然 / 来自灵魂深处的震动 / 英国 / 2017
◎简  介
  《蓝色星球II》将由大卫·爱登堡爵士主持。在长达4年的拍摄进程中, 建造团队共履行了125次的探险,水下拍摄时数长到达6000多个小时。与2001年首播的《藍色星球》相隔16年以后,建造团队透过新的科技技术冲破以往限制,将很多曩昔未知的地带、惊人的生物及其使人张口结舌的行为显现在观众眼前                                    
                                自从《蓝色星球》2001年开播以来,我们对大海之下生命的了解被完全倾覆了。从北极熊出没的北冰洋到抖擞着勃勃朝气的蓝色珊瑚环礁,本系列记载片同大师分享一些使人受惊的新发现;相逢在南冰洋深处神出鬼没的希奇章鱼,观赏庞大的鲹鱼跳出水面,奔腾到半空中打鱼;骑在虎鲸的背上,同它一路冲向鱼群。《蓝色星球2》率领我们体验让人畏敬称奇的新地方,见识魅力四射的新物种,领会非同平常的新行为。
  1. 合集文件列表:
  2. 1.BBC.Blue.Planet.II.2017.EP01.UHD.BluRay.2160p.DTS-HD.MA.5.1.x265.10bit.HDR-ALT.mkv 7.01GB
  3. 2.BBC.Blue.Planet.II.2017.EP02.UHD.BluRay.2160p.DTS-HD.MA.5.1.x265.10bit.HDR-ALT.mkv 5.98GB
  4. 3.BBC.Blue.Planet.II.2017.EP03.UHD.BluRay.2160p.DTS-HD.MA.5.1.x265.10bit.HDR-ALT.mkv 7.55GB
  5. 4.BBC.Blue.Planet.II.2017.EP04.UHD.BluRay.2160p.DTS-HD.MA.5.1.x265.10bit.HDR-ALT.mkv 6.55GB
  6. 5.BBC.Blue.Planet.II.2017.EP05.UHD.BluRay.2160p.DTS-HD.MA.5.1.x265.10bit.HDR-ALT.mkv 9.08GB
  7. 6.BBC.Blue.Planet.II.2017.EP06.UHD.BluRay.2160p.DTS-HD.MA.5.1.x265.10bit.HDR-ALT.mkv 7.46GB
  8. 7.BBC.Blue.Planet.II.2017.EP07.UHD.BluRay.2160p.DTS-HD.MA.5.1.x265.10bit.HDR-ALT.mkv 6.79GB
复制代码
  1. ##### MediaInfo ######
  2. General
  3. Unique ID                                : 219709501290316203313048338976122218152 (0xA54A82C12D33FB3B70D5F4BCEAB626A8)
  4. Complete name                            : BBC.Blue.Planet.II.2017.EP01.UHD.BluRay.2160p.DTS-HD.MA.5.1.x265.10bit.HDR-ALT.mkv
  5. Format                                   : Matroska
  6. Format version                           : Version 4
  7. File size                                : 7.01 GiB
  8. Duration                                 : 51 min 15 s
  9. Overall bit rate mode                    : Variable
  10. Overall bit rate                         : 19.6 Mb/s
  11. Encoded date                             : UTC 2019-11-30 03:13:16
  12. Writing application                      : mkvmerge v40.0.0 ('Old Town Road + Pony') 64-bit
  13. Writing library                          : libebml v1.3.9 + libmatroska v1.5.2
  14. Video
  15. ID                                       : 1
  16. Format                                   : HEVC
  17. Format/Info                              : High Efficiency Video Coding
  18. Format profile                           : Main [email protected]@High
  19. HDR format                               : SMPTE ST 2086, HDR10 compatible
  20. Codec ID                                 : V_MPEGH/ISO/HEVC
  21. Duration                                 : 51 min 15 s
  22. Bit rate                                 : 17.3 Mb/s
  23. Width                                    : 3 840 pixels
  24. Height                                   : 2 160 pixels
  25. Display aspect ratio                     : 16:9
  26. Frame rate mode                          : Constant
  27. Frame rate                               : 23.976 (24000/1001/53875) FPS
  28. Color space                              : YUV
  29. Chroma subsampling                       : 4:2:0 (Type 2)
  30. Bit depth                                : 10 bits
  31. Bits/(Pixel*Frame)                       : 0.087
  32. Stream size                              : 6.19 GiB (88%)
  33. Title                                    : HEVC, [email protected]@High, 24/1.001 fps @ 17291 kbps
  34. Writing library                          : x265 3.0_Au+4-dcbec33bfb0f:[Windows][GCC 8.2.1][64 bit] 10bit
  35. Encoding settings                        : cpuid=538751111039 / frame-threads=3 / numa-pools=8 / wpp / pmode / pme / no-psnr / no-ssim / log-level=2 / input-csp=1 / input-res=3840x2160 / interlace=0 / total-frames=73748 / level-idc=51 / high-tier=1 / uhd-bd=0 / ref=4 / no-allow-non-conformance / repeat-headers / annexb / no-aud / hrd / info / hash=0 / no-temporal-layers / no-open-gop / min-keyint=24 / keyint=240 / gop-lookahead=0 / bframes=8 / b-adapt=2 / b-pyramid / bframe-bias=0 / rc-lookahead=25 / lookahead-slices=0 / NTM4NzU=uuDQuD2mJt9fsCf / scenecut=40 / radl=0 / no-splice / no-intra-refresh / ctu=64 / min-cu-size=8 / no-rect / no-amp / max-tu-size=32 / tu-inter-depth=3 / tu-intra-depth=3 / limit-tu=4 / rdoq-level=2 / dynamic-rd=0.00 / no-ssim-rd / signhide / no-tskip / nr-intra=0 / nr-inter=0 / no-constrained-intra / no-strong-intra-smoothing / max-merge=4 / limit-refs=1 / limit-modes / me=3 / subme=4 / merange=25 / temporal-mvp / weightp / weightb / no-analyze-src-pics / deblock=-3:-3 / no-sao / no-sao-non-deblock / rd=6 / no-early-skip / rskip / no-fast-intra / no-tskip-fast / no-cu-lossless / b-intra / no-splitrd-skip / rdpenalty=0 / psy-rd=2.00 / psy-rdoq=1.00 / no-rd-refine / no-lossless / cbqpoffs=0 / crqpoffs=0 / rc=crf / crf=18.5 / qcomp=0.65 / qpstep=4 / stats-write=0 / stats-read=0 / vbv-maxrate=160000 / vbv-bufsize=160000 / vbv-init=0.9 / crf-max=0.0 / crf-min=0.0 / ipratio=1.30 / pbratio=1.20 / aq-mode=3 / aq-strength=0.85 / cutree / zone-count=0 / no-strict-cbr / qg-size=32 / no-rc-grain / qpmax=69 / qpmin=0 / no-const-vbv / sar=1 / overscan=0 / videoformat=5 / range=0 / colorprim=9 / transfer=16 / colormatrix=9 / chromaloc=1 / chromaloc-top=2 / chromaloc-bottom=2 / display-window=0 / master-display=G(13250,34500)B(7500,3000)R(34000,16000)WP(15635,16450)L(10000000,50) / max-cll=1000,120 / min-luma=0 / max-luma=1023 / log2-max-poc-lsb=8 / vui-timing-info / vui-hrd-info / slices=1 / no-opt-qp-pps / no-opt-ref-list-length-pps / no-multi-pass-opt-rps / scenecut-bias=0.05 / no-opt-cu-delta-qp / no-aq-motion / hdr / hdr-opt / no-dhdr10-opt / no-idr-recovery-sei / analysis-reuse-level=5 / scale-factor=0 / refine-intra=0 / refine-inter=0 / refine-mv=0 / refine-ctu-distortion=0 / no-limit-sao / ctu-info=0 / no-lowpass-dct / refine-analysis-type=0 / copy-pic=1 / max-ausize-factor=1.0 / no-dynamic-refine / no-single-sei / no-hevc-aq / qp-adaptation-range=1.00
  36. Language                                 : English
  37. Default                                  : Yes
  38. Forced                                   : No
  39. Color range                              : Limited
  40. Color primaries                          : BT.2020
  41. Transfer characteristics                 : PQ
  42. Matrix coefficients                      : BT.2020 non-constant
  43. Mastering display color primaries        : Display P3
  44. Mastering display luminance              : min: 0.0050 cd/m2, max: 1000 cd/m2
  45. Maximum Content Light Level              : 1000 cd/m2
  46. Maximum Frame-Average Light Level        : 120 cd/m2
  47. Audio
  48. ID                                       : 2
  49. Format                                   : DTS XLL
  50. Format/Info                              : Digital Theater Systems
  51. Commercial name                          : DTS-HD Master Audio
  52. Codec ID                                 : A_DTS
  53. Duration                                 : 51 min 15 s
  54. Bit rate mode                            : Variable
  55. Bit rate                                 : 2 225 kb/s
  56. Channel(s)                               : 6 channels
  57. Channel layout                           : C L R Ls Rs LFE
  58. Sampling rate                            : 48.0 kHz
  59. Frame rate                               : 93.750 FPS (512 SPF)
  60. Bit depth                                : 16 bits
  61. Compression mode                         : Lossless
  62. Stream size                              : 816 MiB (11%)
  63. Title                                    : DTS-HD Master Audio 5.1 / 48 kHz / 2225 kbps / 16-bit
  64. Language                                 : English
  65. Default                                  : Yes
  66. Forced                                   : No
  67. Text #1
  68. ID                                       : 3
  69. Format                                   : PGS
  70. Codec ID                                 : S_HDMV/PGS
  71. Codec ID/Info                            : Picture based subtitle format used on BDs/HD-DVDs
  72. Duration                                 : 50 min 33 s
  73. Bit rate                                 : 25.1 kb/s
  74. Count of elements                        : 746
  75. Stream size                              : 9.07 MiB (0%)
  76. Title                                    : Eng/SUP
  77. Language                                 : English
  78. Default                                  : No
  79. Forced                                   : No
  80. Text #2
  81. ID                                       : 4
  82. Format                                   : PGS
  83. Codec ID                                 : S_HDMV/PGS
  84. Codec ID/Info                            : Picture based subtitle format used on BDs/HD-DVDs
  85. Duration                                 : 49 min 50 s
  86. Bit rate                                 : 14.0 kb/s
  87. Count of elements                        : 844
  88. Stream size                              : 4.98 MiB (0%)
  89. Title                                    : Chs/SUP  简体
  90. Language                                 : Chinese
  91. Default                                  : Yes
  92. Forced                                   : No
  93. Text #3
  94. ID                                       : 5
  95. Format                                   : PGS
  96. Codec ID                                 : S_HDMV/PGS
  97. Codec ID/Info                            : Picture based subtitle format used on BDs/HD-DVDs
  98. Duration                                 : 49 min 50 s
  99. Bit rate                                 : 14.5 kb/s
  100. Count of elements                        : 844
  101. Stream size                              : 5.17 MiB (0%)
  102. Title                                    : Cht/SUP  繁体
  103. Language                                 : Chinese
  104. Default                                  : No
  105. Forced                                   : No
  106. Menu
  107. 00:00:00.000                             : en: Chapter 1
  108. 00:12:30.333                             : en: Chapter 2
  109. 00:19:23.579                             : en: Chapter 3
  110. 00:28:35.547                             : en: Chapter 4
  111. 00:41:59.183                             : en: Chapter 5
复制代码


蓝色星球2[共7部合集][简繁英字幕].BBC.Blue.Planet.II.2017.EP01-EP07.UHD.BluRay.2160p.DTS-HD.MA.5.1.x265.10bit.HDR-ALT 50.42GB-2.jpeg

蓝色星球2[共7部合集][简繁英字幕].BBC.Blue.Planet.II.2017.EP01-EP07.UHD.BluRay.2160p.DTS-HD.MA.5.1.x265.10bit.HDR-ALT 50.42GB-3.jpeg

蓝色星球2[共7部合集][简繁英字幕].BBC.Blue.Planet.II.2017.EP01-EP07.UHD.BluRay.2160p.DTS-HD.MA.5.1.x265.10bit.HDR-ALT 50.42GB-4.jpeg

蓝色星球2[共7部合集][简繁英字幕].BBC.Blue.Planet.II.2017.EP01-EP07.UHD.BluRay.2160p.DTS-HD.MA.5.1.x265.10bit.HDR-ALT 50.42GB-5.jpeg

蓝色星球2[共7部合集][简繁英字幕].BBC.Blue.Planet.II.2017.EP01-EP07.UHD.BluRay.2160p.DTS-HD.MA.5.1.x265.10bit.HDR-ALT 50.42GB-6.jpeg

蓝色星球2[共7部合集][简繁英字幕].BBC.Blue.Planet.II.2017.EP01-EP07.UHD.BluRay.2160p.DTS-HD.MA.5.1.x265.10bit.HDR-ALT 50.42GB-7.jpeg




保举请利用qBittorrent,utorrent,transmission等标准BT软件下载!以获得最快速度。奉求保种!




回复

使用道具 举报

蓝光币
30
发表于 2022-7-18 21:38:47 | 显示全部楼层
楼主发贴辛苦了,谢谢楼主分享!我觉得蓝光电影网是注册对了!
回复 支持 反对

使用道具 举报

蓝光币
2
发表于 2022-7-20 09:15:37 | 显示全部楼层
谢谢楼主分享!收下!
回复 支持 反对

使用道具 举报

蓝光币
170
发表于 2022-7-21 21:38:53 | 显示全部楼层

楼主太厉害了!楼主,电影应该很好看我觉得蓝光电影网真是个好地方!
回复 支持 反对

使用道具 举报

蓝光币
155
发表于 2022-7-29 08:36:27 | 显示全部楼层
谢谢楼主分享好资源。
回复 支持 反对

使用道具 举报

蓝光币
277
发表于 2022-7-29 20:43:13 | 显示全部楼层
BBC拍摄的影片,一般都是上乘的质量,内容都很棒的。
回复 支持 反对

使用道具 举报

蓝光币
134
发表于 2022-7-30 15:27:36 | 显示全部楼层
多谢分享
回复

使用道具 举报

蓝光币
52
发表于 2022-7-31 22:32:17 | 显示全部楼层
楼主发贴辛苦了,谢谢楼主分享!我觉得蓝光电影网是注册对了!
回复 支持 反对

使用道具 举报

蓝光币
134
发表于 2022-8-8 19:36:32 | 显示全部楼层
多谢分享
回复

使用道具 举报

蓝光币
685
发表于 2022-8-8 20:14:46 | 显示全部楼层

楼主,大恩不言谢了!蓝光电影网是最棒的!
回复 支持 反对

使用道具 举报

懒得打字嘛,点击右侧快捷回复 【右侧内容,后台自定义】
您需要登录后才可以回帖 登录 | 立即加入

本版积分规则

Archiver|小黑屋| 蓝光电影网 |网站地图

Copyright © 2021 Comsenz Inc. Powered by 蓝光电影网

蓝光电影网

本站内容由用户自主分享和转载自互联网,转载目的在于传递更多信息,并不代表本网赞同其观点和对其真实性负责。

如有侵权、违反国家法律政策行为,请联系我们,我们会第一时间及时清除和处理!

举报反馈邮箱:[email protected]

快速回复 返回顶部 返回列表