找回密码

蓝光电影网

查看: 1643|回复: 55

[2160p] 完美星球[共5部合集][简繁英字幕].BBC.A.Perfect.Planet.2021.EP01-EP05.UHD.BluRay.2160p.TrueHD.Atmos.7.1.x265.10bit.HDR-ALT 46.61GB

[复制链接]
蓝光币
7
发表于 2022-7-17 19:37:02 | 显示全部楼层 |阅读模式
完善星球[共5部合集][简繁英字幕].BBC.A.Perfect.Planet.2021.EP01-EP05.UHD.BluRay.2160p.TrueHD.Atmos.7.1.x265.10bit.HDR-ALT 46.61GB-1.jpeg

◎标  题 完善星球
◎片  名 A Perfect Planet
◎年  代 2021
◎产  地 英国
◎类  别 记载片
◎语  言 英语
◎上映日期 2021-01-04(中国大陆) / 2021-01-03(英国)
◎IMDb评分 9/10 (2345人评价)
◎IMDb链接 https://www.imdb.com/title/tt10219322/
◎豆瓣评分 9.6/10 (14175人评价)
◎豆瓣链接 https://movie.douban.com/subject/33387354/
◎片  长 60分钟
◎演  员 大卫·爱登堡 David Attenborough
◎简  介
  《完善星球》是一部与地球科学奇妙连系的蓝筹自然历史记载片,它揭露了我们所保存的这颗星球的运转法则。 这部记载片共分为五集,展现了自然气力若何鞭策、塑造和保持地球生物的多样性,前四集别离摸索了火山、 阳光、天气和陆地的气力,最初一集则着眼于新兴的自然气力:人类,揭露了人类对地球酿成的庞大影响以及若何规复地球完善的生态平衡。                                    
                                从印度雨季湿润的地盘到夏威夷火山灼热的山坡;从巴哈马的潮汐岛屿到雪窖冰天的埃尔斯米尔岛;从冬夜郊外嚎叫的北极狼群到春季结冰的身材渐渐融化的木蛙;从加拉帕戈斯群岛以吸食海鸟鲜血解渴的吸血地雀,到每年景群结队聚集在火山湖中滋生的非洲小红鹳,《完善星球》将率领我们踏上一场无与伦比的视觉之旅。                                    
                                这部记载片将改变我们看待自然故里的方式。我们将一次又一次地见证地球所具有的强大自然气力是若何孕育生命的。
  1. 合集文件列表:
  2. 1.BBC.A.Perfect.Planet.2021.EP01.UHD.BluRay.2160p.TrueHD.Atmos.7.1.x265.10bit.HDR-ALT.mkv 8.30GB
  3. 2.BBC.A.Perfect.Planet.2021.EP02.UHD.BluRay.2160p.TrueHD.Atmos.7.1.x265.10bit.HDR-ALT.mkv 8.72GB
  4. 3.BBC.A.Perfect.Planet.2021.EP03.UHD.BluRay.2160p.TrueHD.Atmos.7.1.x265.10bit.HDR-ALT.mkv 8.20GB
  5. 4.BBC.A.Perfect.Planet.2021.EP04.UHD.BluRay.2160p.TrueHD.Atmos.7.1.x265.10bit.HDR-ALT.mkv 10.72GB
  6. 5.BBC.A.Perfect.Planet.2021.EP05.UHD.BluRay.2160p.TrueHD.Atmos.7.1.x265.10bit.HDR-ALT.mkv 10.67GB
复制代码
  1. ##### MediaInfo ######
  2. General
  3. Unique ID                                : 210189981232723751202796004195529827899 (0x9E211E2DD171D2D41FDE494C918EA63B)
  4. Complete name                            : BBC.A.Perfect.Planet.2021.EP01.UHD.BluRay.2160p.TrueHD.Atmos.7.1.x265.10bit.HDR-ALT.mkv
  5. Format                                   : Matroska
  6. Format version                           : Version 4
  7. File size                                : 8.30 GiB
  8. Duration                                 : 53 min 39 s
  9. Overall bit rate mode                    : Variable
  10. Overall bit rate                         : 22.1 Mb/s
  11. Encoded date                             : UTC 2021-02-09 08:31:02
  12. Writing application                      : mkvmerge v49.0.0 ('Sick Of Losing Soulmates') 64-bit
  13. Writing library                          : libebml v1.4.0 + libmatroska v1.6.1
  14. Video
  15. ID                                       : 1
  16. Format                                   : HEVC
  17. Format/Info                              : High Efficiency Video Coding
  18. Format profile                           : Main [email protected]@High
  19. HDR format                               : SMPTE ST 2086, HDR10 compatible
  20. Codec ID                                 : V_MPEGH/ISO/HEVC
  21. Duration                                 : 53 min 39 s
  22. Bit rate                                 : 16.9 Mb/s
  23. Width                                    : 3 840 pixels
  24. Height                                   : 2 160 pixels
  25. Display aspect ratio                     : 16:9
  26. Frame rate mode                          : Constant
  27. Frame rate                               : 23.976 (24000/1001/53875) FPS
  28. Color space                              : YUV
  29. Chroma subsampling                       : 4:2:0 (Type 2)
  30. Bit depth                                : 10 bits
  31. Bits/(Pixel*Frame)                       : 0.085
  32. Stream size                              : 6.33 GiB (76%)
  33. Title                                    : HEVC, [email protected]@High, 24/1.001 fps @ 16889 kbps
  34. Writing library                          : x265 3.4+14-gd419c7152:[Windows][GCC 10.2.0][64 bit] 10bit
  35. Encoding settings                        : cpuid=538751111039 / frame-threads=6 / numa-pools=44,44 / wpp / pmode / pme / no-psnr / no-ssim / log-level=2 / input-csp=1 / input-res=3840x2160 / interlace=0 / total-frames=77200 / level-idc=51 / high-tier=1 / uhd-bd=0 / ref=4 / no-allow-non-conformance / repeat-headers / annexb / no-aud / hrd / info / hash=0 / no-temporal-layers / no-open-gop / min-keyint=24 / keyint=240 / gop-lookahead=0 / bframes=8 / b-adapt=2 / b-pyramid / bframe-bias=0 / rc-lookahead=25 / lookahead-slices=0 / NTM4NzU=uuDQuD2mJt9fsCf / scenecut=40 / hist-scenecut=0 / radl=0 / no-splice / no-intra-refresh / ctu=64 / min-cu-size=8 / no-rect / no-amp / max-tu-size=32 / tu-inter-depth=3 / tu-intra-depth=3 / limit-tu=4 / rdoq-level=2 / dynamic-rd=0.00 / no-ssim-rd / signhide / no-tskip / nr-intra=0 / nr-inter=0 / no-constrained-intra / no-strong-intra-smoothing / max-merge=4 / limit-refs=1 / limit-modes / me=3 / subme=4 / merange=57 / temporal-mvp / no-frame-dup / no-hme / weightp / weightb / no-analyze-src-pics / deblock=-3:-3 / no-sao / no-sao-non-deblock / rd=6 / selective-sao=0 / no-early-skip / rskip / no-fast-intra / no-tskip-fast / no-cu-lossless / b-intra / no-splitrd-skip / rdpenalty=0 / psy-rd=2.00 / psy-rdoq=1.00 / no-rd-refine / no-lossless / cbqpoffs=0 / crqpoffs=0 / rc=crf / crf=18.5 / qcomp=0.65 / qpstep=4 / stats-write=0 / stats-read=0 / vbv-maxrate=160000 / vbv-bufsize=160000 / vbv-init=0.9 / crf-max=0.0 / crf-min=0.0 / ipratio=1.30 / pbratio=1.20 / aq-mode=3 / aq-strength=0.85 / cutree / zone-count=0 / no-strict-cbr / qg-size=32 / no-rc-grain / qpmax=69 / qpmin=0 / no-const-vbv / sar=1 / overscan=0 / videoformat=5 / range=0 / colorprim=9 / transfer=16 / colormatrix=9 / chromaloc=1 / chromaloc-top=2 / chromaloc-bottom=2 / display-window=0 / master-display=G(13250,34500)B(7500,3000)R(34000,16000)WP(15635,16450)L(10000000,50) / cll=1001,356 / min-luma=0 / max-luma=1023 / log2-max-poc-lsb=8 / vui-timing-info / vui-hrd-info / slices=1 / no-opt-qp-pps / no-opt-ref-list-length-pps / no-multi-pass-opt-rps / scenecut-bias=0.05 / hist-threshold=0.03 / no-opt-cu-delta-qp / no-aq-motion / hdr10 / hdr10-opt / no-dhdr10-opt / no-idr-recovery-sei / analysis-reuse-level=0 / analysis-save-reuse-level=0 / analysis-load-reuse-level=0 / scale-factor=0 / refine-intra=0 / refine-inter=0 / refine-mv=1 / refine-ctu-distortion=0 / no-limit-sao / ctu-info=0 / no-lowpass-dct / refine-analysis-type=0 / copy-pic=1 / max-ausize-factor=1.0 / no-dynamic-refine / no-single-sei / no-hevc-aq / no-svt / no-field / qp-adaptation-range=1.00 / no-scenecut-aware-qpconformance-window-offsets / right=0 / bottom=0 / NTM4NzU= / decoder-max-rate=0
  36. Language                                 : English
  37. Default                                  : Yes
  38. Forced                                   : No
  39. Color range                              : Limited
  40. Color primaries                          : BT.2020
  41. Transfer characteristics                 : PQ
  42. Matrix coefficients                      : BT.2020 non-constant
  43. Mastering display color primaries        : Display P3
  44. Mastering display luminance              : min: 0.0050 cd/m2, max: 1000 cd/m2
  45. Maximum Content Light Level              : 1001 cd/m2
  46. Maximum Frame-Average Light Level        : 356 cd/m2
  47. Audio #1
  48. ID                                       : 2
  49. Format                                   : MLP FBA 16-ch
  50. Format/Info                              : Meridian Lossless Packing FBA with 16-channel presentation
  51. Commercial name                          : Dolby TrueHD with Dolby Atmos
  52. Codec ID                                 : A_TRUEHD
  53. Duration                                 : 53 min 39 s
  54. Bit rate mode                            : Variable
  55. Bit rate                                 : 4 451 kb/s
  56. Maximum bit rate                         : 6 852 kb/s
  57. Channel(s)                               : 8 channels
  58. Channel layout                           : L R C LFE Ls Rs Lb Rb
  59. Sampling rate                            : 48.0 kHz
  60. Frame rate                               : 1 200.000 FPS (40 SPF)
  61. Compression mode                         : Lossless
  62. Stream size                              : 1.67 GiB (20%)
  63. Title                                    : English Dolby TrueHD 7.1 (Atmos) @ 5248 kbps
  64. Language                                 : English
  65. Default                                  : Yes
  66. Forced                                   : No
  67. Number of dynamic objects                : 11
  68. Bed channel count                        : 1 channel
  69. Bed channel configuration                : LFE
  70. Audio #2
  71. ID                                       : 3
  72. Format                                   : AC-3
  73. Format/Info                              : Audio Coding 3
  74. Commercial name                          : Dolby Digital
  75. Codec ID                                 : A_AC3
  76. Duration                                 : 53 min 39 s
  77. Bit rate mode                            : Constant
  78. Bit rate                                 : 640 kb/s
  79. Channel(s)                               : 6 channels
  80. Channel layout                           : L R C LFE Ls Rs
  81. Sampling rate                            : 48.0 kHz
  82. Frame rate                               : 31.250 FPS (1536 SPF)
  83. Compression mode                         : Lossy
  84. Stream size                              : 246 MiB (3%)
  85. Title                                    : English AC3 5.1-EX @ 640 kbps
  86. Language                                 : English
  87. Service kind                             : Complete Main
  88. Default                                  : No
  89. Forced                                   : No
  90. Text #1
  91. ID                                       : 4
  92. Format                                   : PGS
  93. Codec ID                                 : S_HDMV/PGS
  94. Codec ID/Info                            : Picture based subtitle format used on BDs/HD-DVDs
  95. Duration                                 : 52 min 26 s
  96. Bit rate                                 : 32.5 kb/s
  97. Count of elements                        : 904
  98. Stream size                              : 12.2 MiB (0%)
  99. Title                                    : Eng/SUP
  100. Language                                 : English
  101. Default                                  : No
  102. Forced                                   : No
  103. Text #2
  104. ID                                       : 5
  105. Format                                   : PGS
  106. Codec ID                                 : S_HDMV/PGS
  107. Codec ID/Info                            : Picture based subtitle format used on BDs/HD-DVDs
  108. Duration                                 : 52 min 26 s
  109. Bit rate                                 : 33.1 kb/s
  110. Count of elements                        : 904
  111. Stream size                              : 12.4 MiB (0%)
  112. Title                                    : Chs/SUP  简英双语
  113. Language                                 : Chinese
  114. Default                                  : Yes
  115. Forced                                   : No
  116. Text #3
  117. ID                                       : 6
  118. Format                                   : PGS
  119. Codec ID                                 : S_HDMV/PGS
  120. Codec ID/Info                            : Picture based subtitle format used on BDs/HD-DVDs
  121. Duration                                 : 52 min 26 s
  122. Bit rate                                 : 33.8 kb/s
  123. Count of elements                        : 904
  124. Stream size                              : 12.7 MiB (0%)
  125. Title                                    : Cht/SUP  繁英双语
  126. Language                                 : Chinese
  127. Default                                  : No
  128. Forced                                   : No
  129. Menu
  130. 00:00:00.000                             : :第 01 章
  131. 00:15:17.542                             : :第 02 章
  132. 00:23:16.937                             : :第 03 章
  133. 00:32:23.275                             : :第 04 章
  134. 00:45:35.858                             : :第 05 章
复制代码


完善星球[共5部合集][简繁英字幕].BBC.A.Perfect.Planet.2021.EP01-EP05.UHD.BluRay.2160p.TrueHD.Atmos.7.1.x265.10bit.HDR-ALT 46.61GB-2.jpeg

完善星球[共5部合集][简繁英字幕].BBC.A.Perfect.Planet.2021.EP01-EP05.UHD.BluRay.2160p.TrueHD.Atmos.7.1.x265.10bit.HDR-ALT 46.61GB-3.jpeg

完善星球[共5部合集][简繁英字幕].BBC.A.Perfect.Planet.2021.EP01-EP05.UHD.BluRay.2160p.TrueHD.Atmos.7.1.x265.10bit.HDR-ALT 46.61GB-4.jpeg

完善星球[共5部合集][简繁英字幕].BBC.A.Perfect.Planet.2021.EP01-EP05.UHD.BluRay.2160p.TrueHD.Atmos.7.1.x265.10bit.HDR-ALT 46.61GB-5.jpeg

完善星球[共5部合集][简繁英字幕].BBC.A.Perfect.Planet.2021.EP01-EP05.UHD.BluRay.2160p.TrueHD.Atmos.7.1.x265.10bit.HDR-ALT 46.61GB-6.jpeg

完善星球[共5部合集][简繁英字幕].BBC.A.Perfect.Planet.2021.EP01-EP05.UHD.BluRay.2160p.TrueHD.Atmos.7.1.x265.10bit.HDR-ALT 46.61GB-7.jpeg




保举请利用qBittorrent,utorrent,transmission等标准BT软件下载!以获得最快速度。奉求保种!




回复

使用道具 举报

蓝光币
163
发表于 2022-7-17 20:41:15 | 显示全部楼层
楼主发贴辛苦了,谢谢楼主分享!我觉得蓝光电影网是注册对了!
回复 支持 反对

使用道具 举报

蓝光币
32
发表于 2022-7-17 21:36:43 | 显示全部楼层
楼主发贴辛苦了,谢谢楼主分享!我觉得蓝光电影网是注册对了!
回复 支持 反对

使用道具 举报

蓝光币
1786
发表于 2022-7-17 21:47:11 | 显示全部楼层
太好啦&萬分感謝版主的無私發佈分享%
回复 支持 反对

使用道具 举报

蓝光币
28
发表于 2022-7-17 22:26:30 | 显示全部楼层

楼主发贴辛苦了,谢谢楼主分享!我觉得蓝光电影网是注册对了!
回复 支持 反对

使用道具 举报

蓝光币
23
发表于 2022-7-17 22:36:14 | 显示全部楼层
初中毕业那年,最喜欢看半夜的明珠台,就是说这方面的记录片。增长知识和见闻,楼主给力
回复 支持 反对

使用道具 举报

蓝光币
41
发表于 2022-7-18 02:16:36 | 显示全部楼层

这个帖子不回对不起自己!我想我是一天也不能离开蓝光电影网。
回复 支持 反对

使用道具 举报

蓝光币
63
发表于 2022-7-18 07:15:24 | 显示全部楼层
牛哇牛哇牛哇
回复 支持 反对

使用道具 举报

蓝光币
51
发表于 2022-7-18 08:26:47 | 显示全部楼层
最清晰的版本,为楼主点赞!
回复 支持 反对

使用道具 举报

蓝光币
127
发表于 2022-7-18 17:34:39 | 显示全部楼层
多谢分享
回复

使用道具 举报

懒得打字嘛,点击右侧快捷回复 【右侧内容,后台自定义】
您需要登录后才可以回帖 登录 | 立即加入

本版积分规则

Archiver|小黑屋| 蓝光电影网 |网站地图

Copyright © 2021 Comsenz Inc. Powered by 蓝光电影网

蓝光电影网

本站内容由用户自主分享和转载自互联网,转载目的在于传递更多信息,并不代表本网赞同其观点和对其真实性负责。

如有侵权、违反国家法律政策行为,请联系我们,我们会第一时间及时清除和处理!

举报反馈邮箱:[email protected]

快速回复 返回顶部 返回列表