找回密码

蓝光电影网

查看: 1129|回复: 4

[其他] 冷血杀人王 Bandidos.1967.720p.BluRay.x264-ORBS 3.66GB

[复制链接]
蓝光币
1704
发表于 2022-7-21 16:24:37 | 显示全部楼层 |阅读模式


◎标  题 冷血杀人王
◎译  名 Crepa tu... che vivo io / You Die... But I Live / Guns of Death
◎片  名 Bandidos
◎年  代 1967
◎产  地 意大利 / 西班牙
◎类  别 西部
◎语  言 意大利语
◎上映日期 1967-10-15
◎IMDb评分 6.6/10 (765人评价)
◎IMDb链接 https://www.imdb.com/title/tt0062706/
◎豆瓣链接 https://movie.douban.com/subject/3002940/
◎片  长 95 分钟 / USA: 90 分钟
◎导  演 马斯默·达拉马诺 Massimo Dallamano
◎演  员 韦朗第洛·维朗迪尼 Venantino Venantini
       安东尼奥·皮卡 Antonio Pica
       Jesús Puente Jesús Puente
       玛莉亚·马丁 María Martín
       Valentino Macchi Valentino Macchi
       Víctor Israel Víctor Israel
       Cris Huerta Cris Huerta
       Terry Jenkins Terry Jenkins
       弗雷德·奥托·罗伯萨姆 Fred Otto Robsahm
       恩里科·玛丽亚·萨莱诺 Enrico Maria Salerno
       Marco Guglielmi Marco Guglielmi
       马西莫·萨尔基耶利 Massimo Sarchielli
       吉诺·巴巴坎 Gino Barbacane
◎标  签 意大利 / SpaghettiWestern / 往事 / 1960 / western / u / Spaghetti-Western / SW
  1. Video
  2. ID                                       : 1
  3. Format                                   : AVC
  4. Format/Info                              : Advanced Video Codec
  5. Format profile                           : [email protected]
  6. Format settings                          : CABAC / 12 Ref Frames
  7. Format settings, CABAC                   : Yes
  8. Format settings, Reference frames        : 12 frames
  9. Codec ID                                 : V_MPEG4/ISO/AVC
  10. Duration                                 : 1 h 35 min
  11. Bit rate                                 : 4 921 kb/s
  12. Width                                    : 1 280 pixels
  13. Height                                   : 544 pixels
  14. Display aspect ratio                     : 2.35:1
  15. Frame rate mode                          : Constant
  16. Frame rate                               : 23.976 (24000/1001/189150) FPS
  17. Color space                              : YUV
  18. Chroma subsampling                       : 4:2:0
  19. Bit depth                                : 8 bits
  20. Scan type                                : Progressive
  21. Bits/(Pixel*Frame)                       : 0.295
  22. Stream size                              : 3.29 GiB (90%)
  23. Writing library                          : x264 core 164 r3095 baee400
  24. Encoding settings                        : cabac=1 / ref=12 / deblock=1:-3:-3 / analyse=0x3:0x133 / me=umh / subme=10 / psy=1 / psy_rd=1.20:0.00 / mixed_ref=1 / me_range=24 / chroma_me=1 / trellis=2 / 8x8dct=1 / cqm=0 / deadzone=21,11 / fast_pskip=0 / chroma_qp_offset=-2 / threads=17 / lookahead_threads=2 / sliced_threads=0 / nr=0 / decimate=0 / interlaced=0 / bluray_compat=0 / constrained_intra=0 / bframes=8 / b_pyramid=2 / b_adapt=2 / b_bias=0 / direct=3 / weightb=1 / open_gop=0 / weightp=2 / keyint=250 / keyint_min=23 / scenecut=40 / intra_refresh=0 / rc_lookahead=60 / rc=crf / mbtree=1 / crf=23.0 / qcomp=0.60 / qpmin=0 / qpmax=69 / qpstep=4 / ip_ratio=1.40 / aq=3:0.90
  25. Default                                  : Yes
  26. Forced                                   : No
  27. Color range                              : Limited
  28. Matrix coefficients                      : BT.709

  29. Audio #1
  30. ID                                       : 2
  31. Format                                   : FLAC
  32. Format/Info                              : Free Lossless Audio Codec
  33. Codec ID                                 : A_FLAC
  34. Duration                                 : 1 h 35 min
  35. Bit rate mode                            : Variable
  36. Bit rate                                 : 228 kb/s
  37. Channel(s)                               : 1 channel
  38. Channel layout                           : C
  39. Sampling rate                            : 48.0 kHz
  40. Frame rate                               : 11.719 FPS (4096 SPF)
  41. Bit depth                                : 16 bits
  42. Compression mode                         : Lossless
  43. Stream size                              : 156 MiB (4%)
  44. Writing library                          : libFLAC 1.3.3 (UTC 2019-08-04)
  45. Language                                 : Italian
  46. Default                                  : Yes
  47. Forced                                   : No

  48. Audio #2
  49. ID                                       : 3
  50. Format                                   : FLAC
  51. Format/Info                              : Free Lossless Audio Codec
  52. Codec ID                                 : A_FLAC
  53. Duration                                 : 1 h 35 min
  54. Bit rate mode                            : Variable
  55. Bit rate                                 : 238 kb/s
  56. Channel(s)                               : 1 channel
  57. Channel layout                           : C
  58. Sampling rate                            : 48.0 kHz
  59. Frame rate                               : 11.719 FPS (4096 SPF)
  60. Bit depth                                : 16 bits
  61. Compression mode                         : Lossless
  62. Stream size                              : 163 MiB (4%)
  63. Writing library                          : libFLAC 1.3.3 (UTC 2019-08-04)
  64. Language                                 : English
  65. Default                                  : No
  66. Forced                                   : No

  67. Audio #3
  68. ID                                       : 4
  69. Format                                   : AAC LC
  70. Format/Info                              : Advanced Audio Codec Low Complexity
  71. Codec ID                                 : A_AAC-2
  72. Duration                                 : 1 h 35 min
  73. Bit rate                                 : 78.8 kb/s
  74. Channel(s)                               : 1 channel
  75. Channel layout                           : C
  76. Sampling rate                            : 48.0 kHz
  77. Frame rate                               : 46.875 FPS (1024 SPF)
  78. Compression mode                         : Lossy
  79. Delay relative to video                  : 20 ms
  80. Stream size                              : 53.9 MiB (1%)
  81. Title                                    : Commentary
  82. Language                                 : English
  83. Default                                  : No
  84. Forced                                   : No

  85. Text #1
  86. ID                                       : 5
  87. Format                                   : UTF-8
  88. Codec ID                                 : S_TEXT/UTF8
  89. Codec ID/Info                            : UTF-8 Plain Text
  90. Duration                                 : 1 h 32 min
  91. Bit rate                                 : 33 b/s
  92. Count of elements                        : 746
  93. Stream size                              : 22.8 KiB (0%)
  94. Title                                    : English (Forced)
  95. Language                                 : English
  96. Default                                  : Yes
  97. Forced                                   : Yes

  98. Text #2
  99. ID                                       : 6
  100. Format                                   : PGS
  101. Muxing mode                              : zlib
  102. Codec ID                                 : S_HDMV/PGS
  103. Codec ID/Info                            : Picture based subtitle format used on BDs/HD-DVDs
  104. Duration                                 : 1 h 34 min
  105. Bit rate                                 : 21.2 kb/s
  106. Count of elements                        : 1750
  107. Stream size                              : 14.3 MiB (0%)
  108. Title                                    : SDH
  109. Language                                 : English
  110. Default                                  : No
  111. Forced                                   : No

  112. Text #3
  113. ID                                       : 7
  114. Format                                   : PGS
  115. Muxing mode                              : zlib
  116. Codec ID                                 : S_HDMV/PGS
  117. Codec ID/Info                            : Picture based subtitle format used on BDs/HD-DVDs
  118. Duration                                 : 1 h 34 min
  119. Bit rate                                 : 18.1 kb/s
  120. Count of elements                        : 1498
  121. Stream size                              : 12.2 MiB (0%)
  122. Language                                 : English
  123. Default                                  : No
  124. Forced                                   : No

  125. Menu
  126. 00:00:00.000                             : Chapter 01
  127. 00:08:30.969                             : Chapter 02
  128. 00:15:47.446                             : Chapter 03
  129. 00:24:05.235                             : Chapter 04
  130. 00:32:59.895                             : Chapter 05
  131. 00:39:14.561                             : Chapter 06
  132. 00:48:22.191                             : Chapter 07
  133. 00:55:24.029                             : Chapter 08
  134. 01:03:47.615                             : Chapter 09
  135. 01:09:41.511                             : Chapter 10
  136. 01:18:46.722                             : Chapter 11
  137. 01:26:45.200                             : Chapter 12
  138. 01:35:34.103                             : Chapter 13
复制代码






                                       
                                       

                                       
                                       
                                       




回复

使用道具 举报

蓝光币
1395
发表于 2022-7-21 16:50:52 | 显示全部楼层
楼主发贴辛苦了,谢谢楼主分享!我觉得蓝光电影网是注册对了!
回复 支持 反对

使用道具 举报

蓝光币
240
发表于 2022-7-21 23:41:05 | 显示全部楼层

~ 珍惜+支持 ~
回复

使用道具 举报

蓝光币
204
发表于 2022-7-22 08:51:31 | 显示全部楼层
这么老的电影,现在还有人看吗
回复 支持 反对

使用道具 举报

蓝光币
483
发表于 2022-7-22 08:54:53 | 显示全部楼层

我看不错噢 谢谢楼主!蓝光电影网越来越好!
回复 支持 反对

使用道具 举报

懒得打字嘛,点击右侧快捷回复 【右侧内容,后台自定义】
您需要登录后才可以回帖 登录 | 立即加入

本版积分规则

Archiver|小黑屋| 蓝光电影网 |网站地图

Copyright © 2021 Comsenz Inc. Powered by 蓝光电影网

蓝光电影网

本站内容由用户自主分享和转载自互联网,转载目的在于传递更多信息,并不代表本网赞同其观点和对其真实性负责。

如有侵权、违反国家法律政策行为,请联系我们,我们会第一时间及时清除和处理!

举报反馈邮箱:4k1080.com@gmail.com

快速回复 返回顶部 返回列表