找回密码

查看: 1629|回复: 0

[剧情] 我们保守的秘密[简繁字幕].The.Secrets.We.Keep.2020.BluRay.1080p.x265.10bit-MiniHD 8.52GB

[复制链接]
蓝光币
8
发表于 2022-7-21 18:23:31 | 显示全部楼层 |阅读模式


◎标  题 我们守旧的奥秘
◎译  名 地下弒的奥秘(台)
◎片  名 The Secrets We Keep
◎年  代 2020
◎产  地 美国
◎类  别 剧情 / 悬疑 / 惊悚 / 犯罪
◎语  言 英语
◎上映日期 2020-09-16(美国)
◎IMDb评分 5.8/10 (5147人评价)
◎IMDb链接 https://www.imdb.com/title/tt9252488/
◎豆瓣评分 6.3/10 (730人评价)
◎豆瓣链接 https://movie.douban.com/subject/30368418/
◎片  长 97分钟
◎导  演 尤瓦尔·阿德勒 Yuval Adler
◎编  剧 瑞安·科文顿 Ryan Covington
       尤瓦尔·阿德勒 Yuval Adler
◎演  员 劳米·拉佩斯 Noomi Rapace
       乔尔·金纳曼 Joel Kinnaman
       克里斯·梅西纳 Chris Messina
       杰克逊·迪恩·文森特 Jackson Dean Vincent
       艾米·西米茨 Amy Seimetz
       米卢特·纳林 Miluette Nalin
       麦迪逊·佩奇·琼斯 Madison Paige Jones
       杰夫·波普 Jeff Pope
       大卫·马尔登那多 David Maldonado
       埃德·阿玛特鲁多 Ed Amatrudo
       里奇·蒙哥马利 Ritchie Montgomery
       维多利亚·希尔 Victoria Hill
       托马斯·弗兰西斯·墨菲 Thomas Francis Murphy
       罗科·布罗卡托 Rocco Brocato
       杰森·博伊尔 Jason Boyle
       露西·浮士德 Lucy Faust
◎标  签 悬疑 / 美国 / 剧情 / 犯罪 / 2020 / 惊悚 / 美国电影 / 乔尔·金纳曼
◎简  介
  影片报告二战后,玛雅(劳米饰)与丈夫(克里斯饰)在纽约重新起头生活。他们碰到了一个熟悉的汉子(乔尔饰),他们的生活起头崩溃。这对佳耦想晓得,他能否是阿谁在奥斯威辛集合营的军官。
  1. ##### MediaInfo ######
  2. General
  3. Unique ID                                : 31725713428694318710543180895024330461 (0x17DE267039ED2EB495E9FFE6C8CC36DD)
  4. Complete name                            : The.Secrets.We.Keep.2020.BluRay.1080p.x265.10bit-MiniHD.mkv
  5. Format                                   : Matroska
  6. Format version                           : Version 4
  7. File size                                : 8.52 GiB
  8. Duration                                 : 1 h 37 min
  9. Overall bit rate                         : 12.5 Mb/s
  10. Encoded date                             : UTC 2021-03-19 00:16:59
  11. Writing application                      : mkvmerge v39.0.0 ('In The Waiting Line') 64-bit
  12. Writing library                          : libebml v1.3.9 + libmatroska v1.5.2
  13. Video
  14. ID                                       : 1
  15. Format                                   : HEVC
  16. Format/Info                              : High Efficiency Video Coding
  17. Format profile                           : Main 10@L4@Main
  18. Codec ID                                 : V_MPEGH/ISO/HEVC
  19. Duration                                 : 1 h 37 min
  20. Bit rate                                 : 11.8 Mb/s
  21. Width                                    : 1 920 pixels
  22. Height                                   : 806 pixels
  23. Display aspect ratio                     : 2.40:1
  24. Frame rate mode                          : Constant
  25. Frame rate                               : 24.000 FPS
  26. Color space                              : YUV
  27. Chroma subsampling                       : 4:2:0
  28. Bit depth                                : 10 bits
  29. Bits/(Pixel*Frame)                       : 0.317
  30. Stream size                              : 8.04 GiB (94%)
  31. Title                                    : The.Secrets.We.Keep.2020.BluRay.1080p.x265.10bit.MNHD-FRDS
  32. Writing library                          : x265 3.0_Au+4-dcbec33bfb0f:[Windows][GCC 8.2.1][64 bit] 10bit
  33. Encoding settings                        : cpuid=538751111039 / frame-threads=4 / numa-pools=20 / wpp / no-pmode / no-pme / no-psnr / no-ssim / log-level=2 / input-csp=1 / input-res=1920x806 / interlace=0 / total-frames=140624 / level-idc=0 / high-tier=1 / uhd-bd=0 / ref=5 / no-allow-non-conformance / no-repeat-headers / annexb / no-aud / no-hrd / info / hash=0 / no-temporal-layers / no-open-gop / min-keyint=1 / keyint=360 / gop-lookahead=0 / bframes=8 / b-adapt=2 / b-pyramid / bframe-bias=0 / rc-lookahead=60 / lookahead-slices=4 / NTM4NzU=uuDQuD2mJt9fsCf / scenecut=40 / radl=0 / no-splice / no-intra-refresh / ctu=32 / min-cu-size=8 / rect / no-amp / max-tu-size=16 / tu-inter-depth=2 / tu-intra-depth=2 / limit-tu=0 / rdoq-level=2 / dynamic-rd=0.00 / no-ssim-rd / signhide / no-tskip / nr-intra=0 / nr-inter=0 / no-constrained-intra / no-strong-intra-smoothing / max-merge=3 / limit-refs=2 / limit-modes / me=3 / subme=5 / merange=25 / temporal-mvp / weightp / weightb / no-analyze-src-pics / deblock=-1:-1 / no-sao / no-sao-non-deblock / rd=4 / no-early-skip / rskip / no-fast-intra / no-tskip-fast / no-cu-lossless / b-intra / no-splitrd-skip / rdpenalty=1 / psy-rd=2.00 / psy-rdoq=5.00 / no-rd-refine / no-lossless / cbqpoffs=-2 / crqpoffs=-2 / rc=crf / crf=19.3 / qcomp=0.70 / qpstep=4 / stats-write=0 / stats-read=0 / ipratio=1.40 / pbratio=1.30 / aq-mode=3 / aq-strength=0.80 / cutree / zone-count=0 / no-strict-cbr / qg-size=16 / no-rc-grain / qpmax=69 / qpmin=0 / no-const-vbv / sar=1 / overscan=0 / videoformat=5 / range=0 / colorprim=1 / transfer=2 / colormatrix=2 / chromaloc=0 / display-window=0 / max-cll=0,0 / min-luma=0 / max-luma=1023 / log2-max-poc-lsb=8 / vui-timing-info / vui-hrd-info / slices=1 / no-opt-qp-pps / no-opt-ref-list-length-pps / no-multi-pass-opt-rps / scenecut-bias=0.05 / no-opt-cu-delta-qp / no-aq-motion / no-hdr / no-hdr-opt / no-dhdr10-opt / no-idr-recovery-sei / analysis-reuse-level=5 / scale-factor=0 / refine-intra=0 / refine-inter=0 / refine-mv=0 / refine-ctu-distortion=0 / no-limit-sao / ctu-info=0 / no-lowpass-dct / refine-analysis-type=0 / copy-pic=1 / max-ausize-factor=1.0 / no-dynamic-refine / no-single-sei / no-hevc-aq / qp-adaptation-range=1.00
  34. Language                                 : English
  35. Default                                  : Yes
  36. Forced                                   : No
  37. Color range                              : Limited
  38. Color primaries                          : BT.709
  39. Audio
  40. ID                                       : 2
  41. Format                                   : AC-3
  42. Format/Info                              : Audio Coding 3
  43. Commercial name                          : Dolby Digital
  44. Codec ID                                 : A_AC3
  45. Duration                                 : 1 h 37 min
  46. Bit rate mode                            : Constant
  47. Bit rate                                 : 640 kb/s
  48. Channel(s)                               : 6 channels
  49. Channel layout                           : L R C LFE Ls Rs
  50. Sampling rate                            : 48.0 kHz
  51. Frame rate                               : 31.250 FPS (1536 SPF)
  52. Compression mode                         : Lossy
  53. Stream size                              : 447 MiB (5%)
  54. Title                                    : English   DD  5.1  @ 640kbps
  55. Language                                 : English
  56. Service kind                             : Complete Main
  57. Default                                  : Yes
  58. Forced                                   : No
  59. Text #1
  60. ID                                       : 3
  61. Format                                   : PGS
  62. Muxing mode                              : zlib
  63. Codec ID                                 : S_HDMV/PGS
  64. Codec ID/Info                            : Picture based subtitle format used on BDs/HD-DVDs
  65. Duration                                 : 1 h 29 min
  66. Bit rate                                 : 23.7 kb/s
  67. Count of elements                        : 2014
  68. Stream size                              : 15.2 MiB (0%)
  69. Title                                    : CHS/PGS
  70. Language                                 : Chinese
  71. Default                                  : Yes
  72. Forced                                   : No
  73. Text #2
  74. ID                                       : 4
  75. Format                                   : PGS
  76. Muxing mode                              : zlib
  77. Codec ID                                 : S_HDMV/PGS
  78. Codec ID/Info                            : Picture based subtitle format used on BDs/HD-DVDs
  79. Duration                                 : 1 h 29 min
  80. Bit rate                                 : 24.5 kb/s
  81. Count of elements                        : 2014
  82. Stream size                              : 15.6 MiB (0%)
  83. Title                                    : CHT/PGS
  84. Language                                 : Chinese
  85. Default                                  : No
  86. Forced                                   : No
  87. Text #3
  88. ID                                       : 5
  89. Format                                   : PGS
  90. Muxing mode                              : zlib
  91. Codec ID                                 : S_HDMV/PGS
  92. Codec ID/Info                            : Picture based subtitle format used on BDs/HD-DVDs
  93. Duration                                 : 1 h 29 min
  94. Bit rate                                 : 36.8 kb/s
  95. Count of elements                        : 2014
  96. Stream size                              : 23.5 MiB (0%)
  97. Title                                    : CHS&ENG/PGS
  98. Language                                 : Chinese
  99. Default                                  : No
  100. Forced                                   : No
  101. Text #4
  102. ID                                       : 6
  103. Format                                   : PGS
  104. Muxing mode                              : zlib
  105. Codec ID                                 : S_HDMV/PGS
  106. Codec ID/Info                            : Picture based subtitle format used on BDs/HD-DVDs
  107. Duration                                 : 1 h 29 min
  108. Bit rate                                 : 37.5 kb/s
  109. Count of elements                        : 2014
  110. Stream size                              : 24.0 MiB (0%)
  111. Title                                    : CHT&ENG/PGS
  112. Language                                 : Chinese
  113. Default                                  : No
  114. Forced                                   : No
  115. Menu
  116. 00:00:00.000                             : en:第 01 章
  117. 00:08:06.208                             : en:第 02 章
  118. 00:15:58.000                             : en:第 03 章
  119. 00:22:46.083                             : en:第 04 章
  120. 00:29:58.458                             : en:第 05 章
  121. 00:38:09.792                             : en:第 06 章
  122. 00:48:33.583                             : en:第 07 章
  123. 00:57:32.625                             : en:第 08 章
  124. 01:05:53.667                             : en:第 09 章
  125. 01:12:59.708                             : en:第 10 章
  126. 01:22:28.792                             : en:第 11 章
  127. 01:31:33.000                             : en:第 12 章
复制代码
















保举请利用qBittorrent,utorrent,transmission等标准BT软件下载!以获得最快速度。奉求保种!





回复

使用道具 举报

懒得打字嘛,点击右侧快捷回复 【右侧内容,后台自定义】
您需要登录后才可以回帖 登录 | 立即加入

本版积分规则

Copyright © 2024 Comsenz Inc. Powered by 蓝光电影网

本站内容由用户自主分享和转载自互联网,转载目的在于传递更多信息,并不代表本网赞同其观点和对其真实性负责。

如有侵权、违反国家法律政策行为,请联系我们,我们会第一时间及时清除和处理!

举报反馈邮箱:4k1080.com@gmail.com

快速回复 返回顶部 返回列表