找回密码

蓝光电影网

查看: 44|回复: 0

[剧情] 逃狱兄弟2[国粤多音轨/简繁字幕].Breakout.Brothers.2.2021.1080p.BluRay.x265.10bit-CHD 4.37GB

[复制链接]
蓝光币
7
发表于 2022-7-22 15:46:08 | 显示全部楼层 |阅读模式


◎标  题 逃狱兄弟2
◎译  名 逃出行動2 / Breakout Brothers 2
◎片  名 逃獄兄弟2
◎年  代 2021
◎产  地 中国香港
◎类  别 笑剧 / 犯罪
◎语  言 粤语 / 汉语普通话
◎上映日期 2021-12-24(中国大陆收集)
◎IMDb评分 5.9/10 (28人评价)
◎IMDb链接 https://www.imdb.com/title/tt16756914/
◎豆瓣评分 5.2/10 (3535人评价)
◎豆瓣链接 https://movie.douban.com/subject/35402783/
◎片  长 85分钟
◎导  演 麦浩邦 Ho-Bon Mak
◎演  员 谭耀文 Patrick Tam
       张继聪 Louis Cheung
       吴卓羲 Ron Ng
       张建声 Justin Cheung
       栢天男 Adam Pak
       黄德斌 Tak-bun Wong
       邓月平 Larine Tang
◎简  介
  滾筒(譚耀文 飾)、建天(栢天男 飾)、刀疤(張建聲 飾)和浩正(張繼聰 飾)經歷上一次逃獄之後,性情和處事上也改變很多,眾人也安份守己,希望能盡快完成監禁,這令監獄內获得久違了的平靜。年轻企業家賀俊(吳卓羲 飾)被控指使他人犯罪,暫時要哐汉驅彛m然三傇箩岵砰_庭審訊,但一向高屋建瓴的賀俊不慣低頭活於人下,於是貫徹在商界以錢能解決問題的理念,成功利誘獄中兩大勢力,滾筒和刀疤的手下投靠他,將監獄构成一傄再R俊獨大的新场面。 賀俊得知案件有新証人控告自己,面臨被判終身監禁,於是以巨額利誘曾經逃獄的滾筒、建天、刀疤和浩正協助逃獄,並承諾會放置大家一路潛逃到泰國。何如眾民气態改變,不為錢所動,為家人、為義氣,堅拒為錢順從賀俊,使賀俊不惜以大家的弱點作威脅,用手段迫使眾人答應,大家在無奈之下就範⋯⋯
  1. ##### MediaInfo ######
  2. General
  3. Unique ID                                : 136475767783062890686053012609817875847 (0x66AC46DB6CDEB8C0621F26BCED079587)
  4. Complete name                            : Breakout.Brothers.2.2021.1080p.BluRay.x265.10bit-CHD.mkv
  5. Format                                   : Matroska
  6. Format version                           : Version 4
  7. File size                                : 4.36 GiB
  8. Duration                                 : 1 h 25 min
  9. Overall bit rate                         : 7 333 kb/s
  10. Encoded date                             : UTC 2022-07-20 14:04:27
  11. Writing application                      : mkvmerge v68.0.0 ('The Curtain') 64-bit
  12. Writing library                          : libebml v1.4.2 + libmatroska v1.6.4
  13. Video
  14. ID                                       : 1
  15. Format                                   : HEVC
  16. Format/Info                              : High Efficiency Video Coding
  17. Format profile                           : Main [email protected]@Main
  18. Codec ID                                 : V_MPEGH/ISO/HEVC
  19. Duration                                 : 1 h 25 min
  20. Bit rate                                 : 6 243 kb/s
  21. Width                                    : 1 920 pixels
  22. Height                                   : 804 pixels
  23. Display aspect ratio                     : 2.40:1
  24. Frame rate mode                          : Constant
  25. Frame rate                               : 24.000 FPS
  26. Color space                              : YUV
  27. Chroma subsampling                       : 4:2:0
  28. Bit depth                                : 10 bits
  29. Bits/(Pixel*Frame)                       : 0.168
  30. Stream size                              : 3.72 GiB (85%)
  31. Default                                  : Yes
  32. Forced                                   : No
  33. Audio #1
  34. ID                                       : 2
  35. Format                                   : AC-3
  36. Format/Info                              : Audio Coding 3
  37. Commercial name                          : Dolby Digital
  38. Codec ID                                 : A_AC3
  39. Duration                                 : 1 h 25 min
  40. Bit rate mode                            : Constant
  41. Bit rate                                 : 640 kb/s
  42. Channel(s)                               : 6 channels
  43. Channel layout                           : L R C LFE Ls Rs
  44. Sampling rate                            : 48.0 kHz
  45. Frame rate                               : 31.250 FPS (1536 SPF)
  46. Compression mode                         : Lossy
  47. Stream size                              : 390 MiB (9%)
  48. Title                                    : 粤语
  49. Language                                 : Chinese
  50. Service kind                             : Complete Main
  51. Default                                  : Yes
  52. Forced                                   : No
  53. Audio #2
  54. ID                                       : 3
  55. Format                                   : AC-3
  56. Format/Info                              : Audio Coding 3
  57. Commercial name                          : Dolby Digital
  58. Codec ID                                 : A_AC3
  59. Duration                                 : 1 h 25 min
  60. Bit rate mode                            : Constant
  61. Bit rate                                 : 448 kb/s
  62. Channel(s)                               : 6 channels
  63. Channel layout                           : L R C LFE Ls Rs
  64. Sampling rate                            : 48.0 kHz
  65. Frame rate                               : 31.250 FPS (1536 SPF)
  66. Compression mode                         : Lossy
  67. Stream size                              : 273 MiB (6%)
  68. Title                                    : 国语
  69. Language                                 : Chinese
  70. Service kind                             : Complete Main
  71. Default                                  : Yes
  72. Forced                                   : No
  73. Text #1
  74. ID                                       : 4
  75. Format                                   : UTF-8
  76. Codec ID                                 : S_TEXT/UTF8
  77. Codec ID/Info                            : UTF-8 Plain Text
  78. Duration                                 : 1 h 20 min
  79. Bit rate                                 : 47 b/s
  80. Count of elements                        : 1205
  81. Stream size                              : 28.0 KiB (0%)
  82. Title                                    : 简体
  83. Language                                 : Chinese
  84. Default                                  : Yes
  85. Forced                                   : No
  86. Text #2
  87. ID                                       : 5
  88. Format                                   : UTF-8
  89. Codec ID                                 : S_TEXT/UTF8
  90. Codec ID/Info                            : UTF-8 Plain Text
  91. Duration                                 : 1 h 20 min
  92. Bit rate                                 : 47 b/s
  93. Count of elements                        : 1205
  94. Stream size                              : 28.0 KiB (0%)
  95. Title                                    : 繁体
  96. Language                                 : Chinese
  97. Default                                  : Yes
  98. Forced                                   : No
复制代码

















保举请利用qBittorrent,utorrent,transmission等标准BT软件下载!以获得最快速度。奉求保种!





回复

使用道具 举报

懒得打字嘛,点击右侧快捷回复 【右侧内容,后台自定义】
您需要登录后才可以回帖 登录 | 立即加入

本版积分规则

Archiver|小黑屋| 蓝光电影网 |网站地图

Copyright © 2021 Comsenz Inc. Powered by 蓝光电影网

蓝光电影网

本站内容由用户自主分享和转载自互联网,转载目的在于传递更多信息,并不代表本网赞同其观点和对其真实性负责。

如有侵权、违反国家法律政策行为,请联系我们,我们会第一时间及时清除和处理!

举报反馈邮箱:[email protected]

快速回复 返回顶部 返回列表