找回密码

查看: 1548|回复: 0

[剧情] 行骗天下JP:公主篇[简繁字幕].The.Confidence.Man.JP.Princess.2020.BluRay.1080p.x265.10bit-MiniHD 7.47GB

[复制链接]
蓝光币
8
发表于 2022-7-24 04:36:00 | 显示全部楼层 |阅读模式


◎标  题 行骗全国JP:公主篇
◎译  名 信誉欺詐師JP:公主篇(港) / 行骗全国 戏院版:公主篇 / コンフィデンスマンJP 続編
◎片  名 コンフィデンスマンJP プリンセス編
◎年  代 2020
◎产  地 日本
◎类  别 剧情 / 笑剧
◎语  言 日语
◎上映日期 2020-07-23(日本)
◎IMDb评分 6.7/10 (1087人评价)
◎IMDb链接 https://www.imdb.com/title/tt12767996/
◎豆瓣评分 7.3/10 (34788人评价)
◎豆瓣链接 https://movie.douban.com/subject/33476040/
◎片  长 124分钟
◎导  演 田中亮 Ryô Tanaka
◎编  剧 古泽良太 Ryota Kosawa
◎演  员 长泽雅美 Masami Nagasawa
       东出昌大 Masahiro Higashide
       小日向文世 Fumiyo Kohinata
       白滨亚岚 Alan Shirahama
       关水渚 Nagisa Sekimizu
       古川雄大 Yuta Furukawa
       柴田恭兵 Kyôhei Shibata
       北亨衢欣也 Kinya Kitaoji
       三浦春马 Haruma Miura
       竹内结实 Yûko Takeuchi
       广末凉子 Ryoko Hirosue
       江口洋介 Yôsuke Eguchi
       滨田岳 Gaku Hamada
       泷藤贤一 Kenichi Takito
       前田敦子 Atsuko Maeda
       石黑贤 Ken Ishiguro
       小手伸也 Shinya Kote
       织田梨沙 Lisa Oda
       神威乐斗 GACKT
       生濑胜久 Katsuhisa Namase
       滨田麻里 Mari Hamada
       细井鼓太 Nita Hosoi
       泷川英次 Eiji Takigawa
       石原隆 Takashi Ishihara
◎简  介
  此次故事舞台设定在新加坡,长泽雅美、东出昌大、小日向文世组成的诈欺三人组的方针是著名天下的豪富豪胡雷盟留下的10兆日元遗产。
  1. ##### MediaInfo ######
  2. General
  3. Unique ID                                : 106780689468986273956108412996669404447 (0x50553675AC8EB2913F8F0D17C793F51F)
  4. Complete name                            : The.Confidence.Man.JP.Princess.2020.BluRay.1080p.x265.10bit-MiniHD.mkv
  5. Format                                   : Matroska
  6. Format version                           : Version 4
  7. File size                                : 7.47 GiB
  8. Duration                                 : 2 h 3 min
  9. Overall bit rate                         : 8 652 kb/s
  10. Encoded date                             : UTC 2021-01-13 11:55:45
  11. Writing application                      : mkvmerge v52.0.0 ('Secret For The Mad') 64-bit
  12. Writing library                          : libebml v1.4.1 + libmatroska v1.6.2
  13. Video
  14. ID                                       : 1
  15. Format                                   : HEVC
  16. Format/Info                              : High Efficiency Video Coding
  17. Format profile                           : Main 10@L5.1@High
  18. Codec ID                                 : V_MPEGH/ISO/HEVC
  19. Duration                                 : 2 h 3 min
  20. Bit rate                                 : 7 917 kb/s
  21. Width                                    : 1 920 pixels
  22. Height                                   : 1 040 pixels
  23. Display aspect ratio                     : 1.85:1
  24. Frame rate mode                          : Constant
  25. Frame rate                               : 23.976 (24000/1001/53875) FPS
  26. Color space                              : YUV
  27. Chroma subsampling                       : 4:2:0
  28. Bit depth                                : 10 bits
  29. Bits/(Pixel*Frame)                       : 0.165
  30. Stream size                              : 6.83 GiB (92%)
  31. Writing library                          : x265 3.4+33-606265ac7:[Windows][MSVC 1928][64 bit] 10bit
  32. Encoding settings                        : cpuid=538751111039 / frame-threads=3 / numa-pools=14 / wpp / pmode / no-pme / no-psnr / no-ssim / log-level=2 / input-csp=1 / input-res=1920x1040 / interlace=0 / total-frames=177769 / level-idc=0 / high-tier=1 / uhd-bd=0 / ref=4 / no-allow-non-conformance / no-repeat-headers / annexb / no-aud / no-hrd / info / hash=0 / no-temporal-layers / no-open-gop / min-keyint=1 / keyint=250 / gop-lookahead=0 / bframes=6 / b-adapt=2 / b-pyramid / bframe-bias=0 / rc-lookahead=80 / lookahead-slices=0 / NTM4NzU=uuDQuD2mJt9fsCf / scenecut=40 / hist-scenecut=0 / radl=0 / no-splice / no-intra-refresh / ctu=32 / min-cu-size=8 / no-rect / no-amp / max-tu-size=32 / tu-inter-depth=4 / tu-intra-depth=4 / limit-tu=0 / rdoq-level=2 / dynamic-rd=0.00 / no-ssim-rd / signhide / no-tskip / nr-intra=0 / nr-inter=0 / no-constrained-intra / strong-intra-smoothing / max-merge=5 / limit-refs=0 / no-limit-modes / me=3 / subme=7 / merange=44 / temporal-mvp / no-frame-dup / no-hme / weightp / weightb / no-analyze-src-pics / deblock=-3:-3 / no-sao / no-sao-non-deblock / rd=4 / selective-sao=0 / no-early-skip / no-rskip / no-fast-intra / no-tskip-fast / no-cu-lossless / b-intra / no-splitrd-skip / rdpenalty=0 / psy-rd=1.50 / psy-rdoq=1.00 / no-rd-refine / no-lossless / cbqpoffs=-2 / crqpoffs=-2 / rc=crf / crf=19.0 / qcomp=0.65 / qpstep=4 / stats-write=0 / stats-read=0 / vbv-maxrate=160000 / vbv-bufsize=160000 / vbv-init=0.9 / min-vbv-fullness=50.0 / max-vbv-fullness=80.0 / crf-max=0.0 / crf-min=0.0 / ipratio=1.30 / pbratio=1.20 / aq-mode=2 / aq-strength=0.90 / no-cutree / zone-count=0 / no-strict-cbr / qg-size=8 / no-rc-grain / qpmax=69 / qpmin=0 / no-const-vbv / sar=0 / overscan=0 / videoformat=5 / range=0 / colorprim=1 / transfer=1 / colormatrix=1 / chromaloc=0 / display-window=0 / cll=0,0 / min-luma=0 / max-luma=1023 / log2-max-poc-lsb=8 / vui-timing-info / vui-hrd-info / slices=1 / no-opt-qp-pps / no-opt-ref-list-length-pps / no-multi-pass-opt-rps / scenecut-bias=0.05 / hist-threshold=0.03 / no-opt-cu-delta-qp / no-aq-motion / no-hdr10 / no-hdr10-opt / no-dhdr10-opt / no-idr-recovery-sei / analysis-reuse-level=0 / analysis-save-reuse-level=0 / analysis-load-reuse-level=0 / scale-factor=0 / refine-intra=0 / refine-inter=0 / refine-mv=1 / refine-ctu-distortion=0 / no-limit-sao / ctu-info=0 / no-lowpass-dct / refine-analysis-type=0 / copy-pic=1 / max-ausize-factor=1.0 / no-dynamic-refine / no-single-sei / no-hevc-aq / no-svt / no-field / qp-adaptation-range=1.00 / scenecut-aware-qp=0conformance-window-offsets / right=0 / bottom=0 / NTM4NzU= / decoder-max-rate=0 / no-vbv-live-multi-pass
  33. Default                                  : Yes
  34. Forced                                   : No
  35. Color range                              : Limited
  36. Color primaries                          : BT.709
  37. Transfer characteristics                 : BT.709
  38. Matrix coefficients                      : BT.709
  39. Audio
  40. ID                                       : 2
  41. Format                                   : AC-3
  42. Format/Info                              : Audio Coding 3
  43. Commercial name                          : Dolby Digital
  44. Codec ID                                 : A_AC3
  45. Duration                                 : 2 h 3 min
  46. Bit rate mode                            : Constant
  47. Bit rate                                 : 640 kb/s
  48. Channel(s)                               : 6 channels
  49. Channel layout                           : L R C LFE Ls Rs
  50. Sampling rate                            : 48.0 kHz
  51. Frame rate                               : 31.250 FPS (1536 SPF)
  52. Compression mode                         : Lossy
  53. Stream size                              : 566 MiB (7%)
  54. Service kind                             : Complete Main
  55. Default                                  : Yes
  56. Forced                                   : No
  57. Text #1
  58. ID                                       : 3
  59. Format                                   : PGS
  60. Muxing mode                              : zlib
  61. Codec ID                                 : S_HDMV/PGS
  62. Codec ID/Info                            : Picture based subtitle format used on BDs/HD-DVDs
  63. Duration                                 : 2 h 3 min
  64. Bit rate                                 : 28.5 kb/s
  65. Count of elements                        : 2102
  66. Stream size                              : 25.1 MiB (0%)
  67. Title                                    : chs
  68. Language                                 : Chinese
  69. Default                                  : Yes
  70. Forced                                   : No
  71. Text #2
  72. ID                                       : 4
  73. Format                                   : PGS
  74. Muxing mode                              : zlib
  75. Codec ID                                 : S_HDMV/PGS
  76. Codec ID/Info                            : Picture based subtitle format used on BDs/HD-DVDs
  77. Duration                                 : 2 h 3 min
  78. Bit rate                                 : 29.5 kb/s
  79. Count of elements                        : 2102
  80. Stream size                              : 26.0 MiB (0%)
  81. Title                                    : cht
  82. Language                                 : Chinese
  83. Default                                  : No
  84. Forced                                   : No
  85. Text #3
  86. ID                                       : 5
  87. Format                                   : PGS
  88. Muxing mode                              : zlib
  89. Codec ID                                 : S_HDMV/PGS
  90. Codec ID/Info                            : Picture based subtitle format used on BDs/HD-DVDs
  91. Duration                                 : 2 h 3 min
  92. Bit rate                                 : 158 kb/s
  93. Count of elements                        : 7012
  94. Stream size                              : 140 MiB (2%)
  95. Title                                    : jap
  96. Language                                 : Japanese
  97. Default                                  : No
  98. Forced                                   : No
  99. Menu
  100. 00:00:00.000                             : en:第 01 章
  101. 00:08:52.156                             : en:第 02 章
  102. 00:15:16.999                             : en:第 03 章
  103. 00:22:00.652                             : en:第 04 章
  104. 00:26:21.871                             : en:第 05 章
  105. 00:30:40.797                             : en:第 06 章
  106. 00:36:27.059                             : en:第 07 章
  107. 00:46:49.473                             : en:第 08 章
  108. 00:54:46.700                             : en:第 09 章
  109. 01:00:12.817                             : en:第 10 章
  110. 01:09:35.337                             : en:第 11 章
  111. 01:16:13.819                             : en:第 12 章
  112. 01:24:23.641                             : en:第 13 章
  113. 01:33:10.459                             : en:第 14 章
  114. 01:43:32.372                             : en:第 15 章
  115. 01:55:55.073                             : en:第 16 章
复制代码
















保举请利用qBittorrent,utorrent,transmission等标准BT软件下载!以获得最快速度。奉求保种!





回复

使用道具 举报

懒得打字嘛,点击右侧快捷回复 【右侧内容,后台自定义】
您需要登录后才可以回帖 登录 | 立即加入

本版积分规则

Copyright © 2024 Comsenz Inc. Powered by 蓝光电影网

本站内容由用户自主分享和转载自互联网,转载目的在于传递更多信息,并不代表本网赞同其观点和对其真实性负责。

如有侵权、违反国家法律政策行为,请联系我们,我们会第一时间及时清除和处理!

举报反馈邮箱:4k1080.com@gmail.com

快速回复 返回顶部 返回列表