找回密码

蓝光电影网

查看: 40|回复: 0

[其他] 兄弟手足 Brotherhood.2021.BOSNIAN.1080p.WEBRip.AAC2.0.x264-KUCHU 3.82GB

[复制链接]
蓝光币
953
发表于 2022-7-25 19:35:52 | 显示全部楼层 |阅读模式


◎标  题 兄弟手足
◎片  名 Brotherhood
◎年  代 2021
◎产  地 意大利
◎类  别 记载片
◎语  言 波斯尼亚语
◎上映日期 2021-08(洛迦诺电影节)
◎IMDb评分 7.2/10 (59人评价)
◎IMDb链接 https://www.imdb.com/title/tt14915544/
◎豆瓣链接 https://movie.douban.com/subject/35512622/
◎片  长 97分钟
◎简  介

  贾比尔、乌萨马和乌塞尔是牧羊家庭的三兄弟。他们在父亲的阴影下长大。父亲易卜拉欣是个严厉的伊斯兰传教士。易卜拉欣被判入狱两年,三兄弟忽然只能靠自己了。没有父亲的严酷管束,他们的生活发生剧变。兄弟们在长大为汉子的门路上试探着新获得的自在。他们挣扎、打架、直面临方,三人分歧的本性在我们眼前展现,长大的进程从未如此密切、让人倦怠。《兄弟手足》是一次从男孩长大为汉子的摸索,三人在此进程中寻觅自我和爱。
  1. Video
  2. ID                                       : 1
  3. Format                                   : AVC
  4. Format/Info                              : Advanced Video Codec
  5. Format profile                           : [email protected]
  6. Format settings                          : CABAC / 4 Ref Frames
  7. Format settings, CABAC                   : Yes
  8. Format settings, Reference frames        : 4 frames
  9. Codec ID                                 : V_MPEG4/ISO/AVC
  10. Duration                                 : 1 h 32 min
  11. Bit rate                                 : 5 604 kb/s
  12. Width                                    : 1 920 pixels
  13. Height                                   : 1 080 pixels
  14. Display aspect ratio                     : 16:9
  15. Frame rate mode                          : Constant
  16. Frame rate                               : 25.000 FPS
  17. Color space                              : YUV
  18. Chroma subsampling                       : 4:2:0
  19. Bit depth                                : 8 bits
  20. Scan type                                : Progressive
  21. Bits/(Pixel*Frame)                       : 0.108
  22. Stream size                              : 3.61 GiB (95%)
  23. Default                                  : Yes
  24. Forced                                   : No
  25. Audio
  26. ID                                       : 2
  27. Format                                   : AAC LC
  28. Format/Info                              : Advanced Audio Codec Low Complexity
  29. Codec ID                                 : A_AAC-2
  30. Duration                                 : 1 h 32 min
  31. Bit rate                                 : 317 kb/s
  32. Channel(s)                               : 2 channels
  33. Channel layout                           : L R
  34. Sampling rate                            : 48.0 kHz
  35. Frame rate                               : 46.875 FPS (1024 SPF)
  36. Compression mode                         : Lossy
  37. Stream size                              : 209 MiB (5%)
  38. Language                                 : Bosnian
  39. Default                                  : Yes
  40. Forced                                   : No
  41. Text #1
  42. ID                                       : 3
  43. Format                                   : UTF-8
  44. Codec ID                                 : S_TEXT/UTF8
  45. Codec ID/Info                            : UTF-8 Plain Text
  46. Duration                                 : 1 h 26 min
  47. Bit rate                                 : 34 b/s
  48. Frame rate                               : 0.100 FPS
  49. Count of elements                        : 517
  50. Stream size                              : 21.9 KiB (0%)
  51. Language                                 : Catalan
  52. Default                                  : No
  53. Forced                                   : No
  54. Text #2
  55. ID                                       : 4
  56. Format                                   : UTF-8
  57. Codec ID                                 : S_TEXT/UTF8
  58. Codec ID/Info                            : UTF-8 Plain Text
  59. Duration                                 : 1 h 26 min
  60. Bit rate                                 : 36 b/s
  61. Frame rate                               : 0.100 FPS
  62. Count of elements                        : 518
  63. Stream size                              : 22.8 KiB (0%)
  64. Language                                 : English
  65. Default                                  : Yes
  66. Forced                                   : No
  67. Text #3
  68. ID                                       : 5
  69. Format                                   : UTF-8
  70. Codec ID                                 : S_TEXT/UTF8
  71. Codec ID/Info                            : UTF-8 Plain Text
  72. Duration                                 : 1 h 26 min
  73. Bit rate                                 : 35 b/s
  74. Frame rate                               : 0.100 FPS
  75. Count of elements                        : 517
  76. Stream size                              : 22.3 KiB (0%)
  77. Language                                 : Spanish
  78. Default                                  : No
  79. Forced                                   : No
复制代码





                                       
                                       

                                       
                                       
                                       




回复

使用道具 举报

懒得打字嘛,点击右侧快捷回复 【右侧内容,后台自定义】
您需要登录后才可以回帖 登录 | 立即加入

本版积分规则

Archiver|小黑屋| 蓝光电影网 |网站地图

Copyright © 2021 Comsenz Inc. Powered by 蓝光电影网

蓝光电影网

本站内容由用户自主分享和转载自互联网,转载目的在于传递更多信息,并不代表本网赞同其观点和对其真实性负责。

如有侵权、违反国家法律政策行为,请联系我们,我们会第一时间及时清除和处理!

举报反馈邮箱:[email protected]

快速回复 返回顶部 返回列表