找回密码

蓝光电影网

查看: 31|回复: 0

[剧情] 辩护人[简繁英字幕].The.Attorney.2013.BluRay.1080p.x265.10bit.DDP.5.1-MiniHD 8.04GB

[复制链接]
蓝光币
7
发表于 2022-7-27 02:09:14 | 显示全部楼层 |阅读模式


◎标  题 辩解人
◎译  名 逆权大状(港) / 正义辩解人(台) / The Attorney
◎片  名 변호인
◎年  代 2013
◎产  地 韩国
◎类  别 剧情
◎语  言 韩语
◎上映日期 2013-12-18(韩国)
◎IMDb评分 7.7/10 (6007人评价)
◎IMDb链接 https://www.imdb.com/title/tt3404140/
◎豆瓣评分 9.2/10 (520656人评价)
◎豆瓣链接 https://movie.douban.com/subject/21937445/
◎片  长 127分钟
◎导  演 杨宇硕 Woo-seok Yang
◎编  剧 杨宇硕 Woo-seok Yang
       尹贤浩 Hyeon-ho Yoon
◎演  员 宋康昊 Kang-ho Song
       金英爱 Yeong-ae Kim
       吴达洙 Dal-su Oh
       郭度沅 Do-Won Kwak
       任时完 Si-wan Yim
       宋永彰 Young-chang Song
       郑元中 Won-jung Jeong
       赵敏基 Min-Ki Cho
       李杭娜 Hang-na Lee
       李星民 Sung-min Lee
       车光洙 Kwang-soo Cha
       韩基重 Ki-jung Han
       沈熙燮 Hee-seop Sim
       赵莞基 Wan-gi Jo
       李姃垠 Jung-eun Lee
       朴成根 Sung-geun Park
       郑俊元 Joon-won Jeong
       李真熙 Lee Jin-hee
       朴修荣 Park Soo-young
       李率求 Seol-goo Lee
       张利雨 Jang Liu
       权五镇 Kwon Oh-jin
       崔正贤 Jung Hyun Choi
       薛昌熙 Chang-hee Seol
       杨明宪 Yang Myeong-heon
       黄健 황건
       曹善默 Sun-mook Jo
       刘河福 Ha-bok Yoo
       杨道贤 Do-hyeon Yang
       全光镇 Kwang-jin Jeon
       申承勇 Seung-yong Sin
       金佳英 Kim Ga Young
       曹永旭 Yeong-wook Jo
       Tae-yun Lee Tae-yun Lee
       柳星姬 Seong-hie Ryu
◎标  签 韩国 / 政治 / 法令 / 民主 / 人性 / 剧情 / 动人 / 社会
◎简  介
  1978年,只要高中学历的宋佑硕(宋康昊 饰)经过量年的艰辛尽力,终究经过司法考试,并在成为法官后很快转行成为一位律师。他灵敏地从最新政策中嗅到商机,以不动产代书营业起家。虽然被同业讥讽为随时随地派发名片的夜店小弟,但佑硕不以为忤,一步一步朝着心中的方针迈进。他依靠赚来的钱让妻儿过上富足的生活,也还了七年前在饭馆大婶那边欠下的良知债。进入20世纪80年月,韩百姓主化斗争愈演愈烈。佑硕全然不管窗外事,关起门来继续赢利。但是社会的剧变已经不容他置身事外,饭馆大婶的儿子朴镇宇因隶属的釜山念书结合会被控为右翼社团而遭到拘系,更遭到残暴的凌虐和不公的控告。                                    
                                虽然爱钱却更重豪情的佑硕,就这样走上了为民主辩解的门路……
  1. ##### MediaInfo ######
  2. General
  3. Unique ID                                : 110087107095644291784827417812862436461 (0x52D2016F4E5DCDFFB99A78CC7E9F046D)
  4. Complete name                            : The.Attorney.2013.BluRay.1080p.x265.10bit.DDP.5.1-MiniHD.mkv
  5. Format                                   : Matroska
  6. Format version                           : Version 4
  7. File size                                : 8.03 GiB
  8. Duration                                 : 2 h 7 min
  9. Overall bit rate                         : 9 032 kb/s
  10. Movie name                               : Attorney  - Blu-ray
  11. Encoded date                             : UTC 2021-02-15 14:40:34
  12. Writing application                      : mkvmerge v53.0.0 ('Fool's Gold') 64-bit
  13. Writing library                          : libebml v1.4.1 + libmatroska v1.6.2
  14. Cover                                    : Yes
  15. Attachments                              : cover.jpg
  16. Video
  17. ID                                       : 1
  18. Format                                   : HEVC
  19. Format/Info                              : High Efficiency Video Coding
  20. Format profile                           : Main [email protected]@High
  21. Codec ID                                 : V_MPEGH/ISO/HEVC
  22. Duration                                 : 2 h 7 min
  23. Bit rate                                 : 7 936 kb/s
  24. Width                                    : 1 920 pixels
  25. Height                                   : 1 040 pixels
  26. Display aspect ratio                     : 1.85:1
  27. Frame rate mode                          : Constant
  28. Frame rate                               : 23.976 (24000/1001/53875) FPS
  29. Color space                              : YUV
  30. Chroma subsampling                       : 4:2:0
  31. Bit depth                                : 10 bits
  32. Bits/(Pixel*Frame)                       : 0.166
  33. Stream size                              : 7.06 GiB (88%)
  34. Writing library                          : x265 3.4+30-g6722fce1f:[Windows][GCC 10.2.0][64 bit] 10bit
  35. Encoding settings                        : cpuid=538751111039 / frame-threads=4 / numa-pools=20 / wpp / pmode / no-pme / no-psnr / no-ssim / log-level=2 / input-csp=1 / input-res=1920x1040 / interlace=0 / total-frames=183199 / level-idc=0 / high-tier=1 / uhd-bd=0 / ref=4 / no-allow-non-conformance / no-repeat-headers / annexb / no-aud / no-hrd / info / hash=0 / no-temporal-layers / no-open-gop / min-keyint=1 / keyint=250 / gop-lookahead=0 / bframes=6 / b-adapt=2 / b-pyramid / bframe-bias=0 / rc-lookahead=80 / lookahead-slices=0 / NTM4NzU=uuDQuD2mJt9fsCf / scenecut=40 / hist-scenecut=0 / radl=0 / no-splice / no-intra-refresh / ctu=32 / min-cu-size=8 / no-rect / no-amp / max-tu-size=32 / tu-inter-depth=4 / tu-intra-depth=4 / limit-tu=0 / rdoq-level=2 / dynamic-rd=0.00 / no-ssim-rd / signhide / no-tskip / nr-intra=0 / nr-inter=0 / no-constrained-intra / strong-intra-smoothing / max-merge=5 / limit-refs=0 / no-limit-modes / me=3 / subme=7 / merange=44 / temporal-mvp / no-frame-dup / no-hme / weightp / weightb / no-analyze-src-pics / deblock=-3:-3 / no-sao / no-sao-non-deblock / rd=4 / selective-sao=0 / no-early-skip / no-rskip / no-fast-intra / no-tskip-fast / no-cu-lossless / b-intra / no-splitrd-skip / rdpenalty=0 / psy-rd=1.50 / psy-rdoq=1.00 / no-rd-refine / no-lossless / cbqpoffs=-2 / crqpoffs=-2 / rc=crf / crf=19.0 / qcomp=0.65 / qpstep=4 / stats-write=0 / stats-read=0 / vbv-maxrate=160000 / vbv-bufsize=160000 / vbv-init=0.9 / min-vbv-fullness=50.0 / max-vbv-fullness=80.0 / crf-max=0.0 / crf-min=0.0 / ipratio=1.30 / pbratio=1.20 / aq-mode=2 / aq-strength=0.90 / no-cutree / zone-count=0 / no-strict-cbr / qg-size=8 / no-rc-grain / qpmax=69 / qpmin=0 / no-const-vbv / sar=0 / overscan=0 / videoformat=5 / range=0 / colorprim=1 / transfer=1 / colormatrix=1 / chromaloc=0 / display-window=0 / cll=0,0 / min-luma=0 / max-luma=1023 / log2-max-poc-lsb=8 / vui-timing-info / vui-hrd-info / slices=1 / no-opt-qp-pps / no-opt-ref-list-length-pps / no-multi-pass-opt-rps / scenecut-bias=0.05 / hist-threshold=0.03 / no-opt-cu-delta-qp / no-aq-motion / no-hdr10 / no-hdr10-opt / no-dhdr10-opt / no-idr-recovery-sei / analysis-reuse-level=0 / analysis-save-reuse-level=0 / analysis-load-reuse-level=0 / scale-factor=0 / refine-intra=0 / refine-inter=0 / refine-mv=1 / refine-ctu-distortion=0 / no-limit-sao / ctu-info=0 / no-lowpass-dct / refine-analysis-type=0 / copy-pic=1 / max-ausize-factor=1.0 / no-dynamic-refine / no-single-sei / no-hevc-aq / no-svt / no-field / qp-adaptation-range=1.00 / no-scenecut-aware-qpconformance-window-offsets / right=0 / bottom=0 / NTM4NzU= / decoder-max-rate=0 / no-vbv-live-multi-pass
  36. Default                                  : Yes
  37. Forced                                   : No
  38. Color range                              : Limited
  39. Color primaries                          : BT.709
  40. Transfer characteristics                 : BT.709
  41. Matrix coefficients                      : BT.709
  42. Audio
  43. ID                                       : 2
  44. Format                                   : E-AC-3
  45. Format/Info                              : Enhanced AC-3
  46. Commercial name                          : Dolby Digital Plus
  47. Codec ID                                 : A_EAC3
  48. Duration                                 : 2 h 7 min
  49. Bit rate mode                            : Constant
  50. Bit rate                                 : 1 023 kb/s
  51. Channel(s)                               : 6 channels
  52. Channel layout                           : L R C LFE Ls Rs
  53. Sampling rate                            : 48.0 kHz
  54. Frame rate                               : 93.750 FPS (512 SPF)
  55. Compression mode                         : Lossy
  56. Stream size                              : 932 MiB (11%)
  57. Language                                 : Korean
  58. Service kind                             : Complete Main
  59. Default                                  : Yes
  60. Forced                                   : No
  61. Text #1
  62. ID                                       : 3
  63. ID in the original source medium         : 4610 (0x1202)
  64. Format                                   : PGS
  65. Muxing mode                              : zlib
  66. Codec ID                                 : S_HDMV/PGS
  67. Codec ID/Info                            : Picture based subtitle format used on BDs/HD-DVDs
  68. Duration                                 : 2 h 4 min
  69. Bit rate                                 : 30.3 kb/s
  70. Count of elements                        : 3202
  71. Stream size                              : 27.0 MiB (0%)
  72. Title                                    : chs
  73. Language                                 : Chinese
  74. Default                                  : No
  75. Forced                                   : No
  76. Original source medium                   : Blu-ray
  77. Text #2
  78. ID                                       : 4
  79. ID in the original source medium         : 4611 (0x1203)
  80. Format                                   : PGS
  81. Muxing mode                              : zlib
  82. Codec ID                                 : S_HDMV/PGS
  83. Codec ID/Info                            : Picture based subtitle format used on BDs/HD-DVDs
  84. Duration                                 : 2 h 4 min
  85. Bit rate                                 : 31.9 kb/s
  86. Count of elements                        : 3202
  87. Stream size                              : 28.5 MiB (0%)
  88. Title                                    : cht
  89. Language                                 : Chinese
  90. Default                                  : No
  91. Forced                                   : No
  92. Original source medium                   : Blu-ray
  93. Text #3
  94. ID                                       : 5
  95. ID in the original source medium         : 4608 (0x1200)
  96. Format                                   : PGS
  97. Muxing mode                              : zlib
  98. Codec ID                                 : S_HDMV/PGS
  99. Codec ID/Info                            : Picture based subtitle format used on BDs/HD-DVDs
  100. Duration                                 : 2 h 3 min
  101. Bit rate                                 : 40.7 kb/s
  102. Count of elements                        : 3766
  103. Stream size                              : 36.0 MiB (0%)
  104. Language                                 : Korean
  105. Default                                  : Yes
  106. Forced                                   : No
  107. Original source medium                   : Blu-ray
  108. Text #4
  109. ID                                       : 6
  110. ID in the original source medium         : 4609 (0x1201)
  111. Format                                   : PGS
  112. Muxing mode                              : zlib
  113. Codec ID                                 : S_HDMV/PGS
  114. Codec ID/Info                            : Picture based subtitle format used on BDs/HD-DVDs
  115. Duration                                 : 2 h 4 min
  116. Bit rate                                 : 36.4 kb/s
  117. Count of elements                        : 3705
  118. Stream size                              : 32.3 MiB (0%)
  119. Language                                 : English
  120. Default                                  : No
  121. Forced                                   : No
  122. Original source medium                   : Blu-ray
  123. Menu
  124. 00:00:00.000                             : en:CHAPTER:01
  125. 00:06:02.320                             : en:CHAPTER:02
  126. 00:11:57.633                             : en:CHAPTER:03
  127. 00:22:32.684                             : en:CHAPTER:04
  128. 00:32:34.035                             : en:CHAPTER:05
  129. 00:41:08.757                             : en:CHAPTER:06
  130. 00:49:07.194                             : en:CHAPTER:07
  131. 00:59:28.356                             : en:CHAPTER:08
  132. 01:08:59.009                             : en:CHAPTER:09
  133. 01:20:10.222                             : en:CHAPTER:10
  134. 01:24:31.608                             : en:CHAPTER:11
  135. 01:36:10.765                             : en:CHAPTER:12
  136. 01:44:18.627                             : en:CHAPTER:13
  137. 01:53:13.203                             : en:CHAPTER:14
  138. 01:59:39.589                             : en:CHAPTER:15
  139. 02:05:10.085                             : en:CHAPTER:16
复制代码



保举请利用qBittorrent,utorrent,transmission等标准BT软件下载!以获得最快速度。奉求保种!





回复

使用道具 举报

懒得打字嘛,点击右侧快捷回复 【右侧内容,后台自定义】
您需要登录后才可以回帖 登录 | 立即加入

本版积分规则

Archiver|小黑屋| 蓝光电影网 |网站地图

Copyright © 2021 Comsenz Inc. Powered by 蓝光电影网

蓝光电影网

本站内容由用户自主分享和转载自互联网,转载目的在于传递更多信息,并不代表本网赞同其观点和对其真实性负责。

如有侵权、违反国家法律政策行为,请联系我们,我们会第一时间及时清除和处理!

举报反馈邮箱:[email protected]

快速回复 返回顶部 返回列表