找回密码

蓝光电影网

查看: 26|回复: 0

[剧情] 辣手摧花[简繁英字幕].Shadow.of.a.Doubt.1943.GER.BluRay.1080p.x265.10bit.FLAC.L-MiniHD 5.23GB

[复制链接]
蓝光币
7
发表于 2022-7-27 02:09:24 | 显示全部楼层 |阅读模式


◎标  题 辣手摧花
◎译  名 心声疑影 / 疑影
◎片  名 Shadow of a Doubt
◎年  代 1943
◎产  地 美国
◎类  别 剧情 / 悬疑 / 犯罪
◎语  言 英语
◎上映日期 1943-01-12(美国)
◎IMDb评分 7.8/10 (63114人评价)
◎IMDb链接 https://www.imdb.com/title/tt0036342/
◎豆瓣评分 7.5/10 (21926人评价)
◎豆瓣链接 https://movie.douban.com/subject/1293817/
◎片  长 108 分钟
◎导  演 阿尔弗雷德·希区柯克 Alfred Hitchcock
◎编  剧 桑顿·怀尔德 Thornton Wilder
       萨莉·本森 Sally Benson
       艾玛·雷维尔 Alma Reville
       戈登·麦克唐纳 Gordon McDonell
◎演  员 特雷莎·怀特 Teresa Wright
       约瑟夫·科顿 Joseph Cotten
       麦克唐纳·凯瑞 Macdonald Carey
       亨利·崔佛斯 Henry Travers
       帕特里夏·科林奇 Patricia Collinge
       休姆·克罗宁 Hume Cronyn
       华莱士·福特 Wallace Ford
       艾德娜梅沃娜考特 Edna May Wonacott
       查尔斯·贝茨 Charles Bates
       欧文·培根 Irving Bacon
       克拉伦斯·缪斯 Clarence Muse
       弗吉尼亚·布里萨克 Virginia Brissac
       爱德华·菲尔丁 Edward Fielding
       阿尔弗雷德·希区柯克 Alfred Hitchcock
       鲁思李 Ruth Lee
       约翰·麦圭尔 John McGuire
       雪莉·米尔斯 Shirley Mills
       格兰丁·罗德 Grandon Rhodes
       Janet Shaw Janet Shaw
       Frances Carson Frances Carson
       Earle S. Dewey Earle S. Dewey
       萨拉·爱德华兹 Sarah Edwards
       Vaughan Glaser Vaughan Glaser
       Shep Houghton Shep Houghton
       Eily Malyon Eily Malyon
       Constance Purdy Constance Purdy
       Isabel Randolph Isabel Randolph
       Edwin Stanley Edwin Stanley
       米内尔娃·尤雷卡尔 Minerva Urecal
◎标  签 希区柯克 / 悬疑 / 美国 / 犯罪 / 黑白 / 1943 / AlfredHitchcock / 阿尔弗雷德·希区柯克
◎简  介
    小镇烦闷的空气令受太高档教育的Charlie(Teresa Wright)非常压制,她渴望在外谋大事、自己爱好和崇敬的Uncle Charlie(Joseph Cotten)能忽然出现,为自己的生活注入一缕新风。Charlie欲发电报约请舅舅来做客时,竟先收到他发来的要来的报文,欣喜之外,她对舅舅的爱又加深一层。                                                                      Uncle Charlie的到来令Charlie及怙恃很是兴奋,但酷好念书的妹妹无动于衷。未几Charlie如沐春风变作无忧无虑的少女。两个自称报社记者的陌生人故意将Charlie一家看成典型美国家庭采访,Uncle Charlie为此事大发雷霆相当失态,令Charlie和母亲大为不解。而同其中之一Herbie Hawkins(Hume Cronyn)扳谈中,Charlie震动地听闻有关舅舅的骇人奥秘。
  1. ##### MediaInfo ######
  2. General
  3. Unique ID                                : 171990781553348097404408860851801506414 (0x8164383A037473AE863676DE12A1426E)
  4. Complete name                            : Shadow.of.a.Doubt.1943.GER.BluRay.1080p.x265.10bit.FLAC.L-MiniHD.mkv
  5. Format                                   : Matroska
  6. Format version                           : Version 4
  7. File size                                : 5.23 GiB
  8. Duration                                 : 1 h 47 min
  9. Overall bit rate mode                    : Variable
  10. Overall bit rate                         : 6 945 kb/s
  11. Movie name                               : Shadow.of.a.Doubt.1943.BluRay-FRDS
  12. Encoded date                             : UTC 2021-01-25 02:41:24
  13. Writing application                      : mkvmerge v51.0.0 ('I Wish') 64-bit
  14. Writing library                          : libebml v1.4.0 + libmatroska v1.6.2
  15. Video
  16. ID                                       : 1
  17. Format                                   : HEVC
  18. Format/Info                              : High Efficiency Video Coding
  19. Format profile                           : Main [email protected]@High
  20. Codec ID                                 : V_MPEGH/ISO/HEVC
  21. Duration                                 : 1 h 47 min
  22. Bit rate                                 : 6 043 kb/s
  23. Width                                    : 1 440 pixels
  24. Height                                   : 1 080 pixels
  25. Display aspect ratio                     : 4:3
  26. Frame rate mode                          : Constant
  27. Frame rate                               : 23.976 (24000/1001/53875) FPS
  28. Color space                              : YUV
  29. Chroma subsampling                       : 4:2:0
  30. Bit depth                                : 10 bits
  31. Bits/(Pixel*Frame)                       : 0.162
  32. Stream size                              : 4.55 GiB (87%)
  33. Writing library                          : x265 2.9+1-169e76b6bbcc:[Windows][GCC 8.2.0][64 bit] 10bit
  34. Encoding settings                        : cpuid=538751111039 / frame-threads=3 / numa-pools=8 / wpp / no-pmode / no-pme / no-psnr / no-ssim / log-level=2 / csv / csv-log-level=0 / input-csp=1 / input-res=1440x1080 / interlace=0 / total-frames=155112 / level-idc=0 / high-tier=1 / uhd-bd=0 / ref=5 / no-allow-non-conformance / no-repeat-headers / annexb / no-aud / no-hrd / info / hash=0 / no-temporal-layers / no-open-gop / min-keyint=1 / keyint=360 / gop-lookahead=0 / bframes=8 / b-adapt=2 / b-pyramid / bframe-bias=0 / rc-lookahead=48 / lookahead-slices=4 / NTM4NzU=uuDQuD2mJt9fsCf / scenecut=40 / radl=0 / no-intra-refresh / ctu=32 / min-cu-size=8 / no-rect / no-amp / max-tu-size=16 / tu-inter-depth=2 / tu-intra-depth=2 / limit-tu=4 / rdoq-level=1 / dynamic-rd=0.00 / no-ssim-rd / signhide / no-tskip / nr-intra=0 / nr-inter=0 / no-constrained-intra / no-strong-intra-smoothing / max-merge=3 / limit-refs=2 / limit-modes / me=3 / subme=5 / merange=25 / temporal-mvp / weightp / weightb / no-analyze-src-pics / deblock=-1:-1 / no-sao / no-sao-non-deblock / rd=4 / no-early-skip / no-rskip / no-fast-intra / no-tskip-fast / no-cu-lossless / b-intra / no-splitrd-skip / rdpenalty=1 / psy-rd=2.00 / psy-rdoq=5.00 / no-rd-refine / no-lossless / cbqpoffs=-3 / crqpoffs=-3 / rc=crf / crf=17.0 / qcomp=0.70 / qpstep=4 / stats-write=0 / stats-read=0 / vbv-maxrate=30000 / vbv-bufsize=35000 / vbv-init=0.9 / crf-max=0.0 / crf-min=0.0 / ipratio=1.40 / pbratio=1.30 / aq-mode=2 / aq-strength=0.90 / cutree / zone-count=0 / no-strict-cbr / qg-size=16 / no-rc-grain / qpmax=69 / qpmin=0 / no-const-vbv / sar=0 / overscan=0 / videoformat=5 / range=0 / colorprim=1 / transfer=2 / colormatrix=2 / chromaloc=0 / display-window=0 / max-cll=0,0 / min-luma=0 / max-luma=1023 / log2-max-poc-lsb=8 / vui-timing-info / vui-hrd-info / slices=1 / no-opt-qp-pps / no-opt-ref-list-length-pps / no-multi-pass-opt-rps / scenecut-bias=0.05 / no-opt-cu-delta-qp / no-aq-motion / no-hdr / no-hdr-opt / no-dhdr10-opt / no-idr-recovery-sei / analysis-reuse-level=5 / scale-factor=0 / refine-intra=0 / refine-inter=0 / refine-mv=0 / no-limit-sao / ctu-info=0 / no-lowpass-dct / refine-mv-type=0 / copy-pic=1 / max-ausize-factor=1.0 / no-dynamic-refine / no-single-sei
  35. Language                                 : English
  36. Default                                  : Yes
  37. Forced                                   : No
  38. Color range                              : Limited
  39. Color primaries                          : BT.709
  40. Audio
  41. ID                                       : 2
  42. Format                                   : FLAC
  43. Format/Info                              : Free Lossless Audio Codec
  44. Codec ID                                 : A_FLAC
  45. Duration                                 : 1 h 47 min
  46. Bit rate mode                            : Variable
  47. Bit rate                                 : 627 kb/s
  48. Channel(s)                               : 2 channels
  49. Channel layout                           : L R
  50. Sampling rate                            : 48.0 kHz
  51. Frame rate                               : 11.719 FPS (4096 SPF)
  52. Bit depth                                : 24 bits
  53. Compression mode                         : Lossless
  54. Stream size                              : 484 MiB (9%)
  55. Title                                    : FLAC, English, 2.0 channels, 24 bits, 48kHz @ 627 kbps
  56. Writing library                          : libFLAC 1.2.1 (UTC 2007-09-17)
  57. Language                                 : English
  58. Default                                  : Yes
  59. Forced                                   : No
  60. Text #1
  61. ID                                       : 3
  62. Format                                   : PGS
  63. Muxing mode                              : zlib
  64. Codec ID                                 : S_HDMV/PGS
  65. Codec ID/Info                            : Picture based subtitle format used on BDs/HD-DVDs
  66. Duration                                 : 1 h 44 min
  67. Bit rate                                 : 52.7 kb/s
  68. Count of elements                        : 2894
  69. Stream size                              : 39.6 MiB (1%)
  70. Title                                    : chs&eng
  71. Language                                 : Chinese
  72. Default                                  : Yes
  73. Forced                                   : No
  74. Text #2
  75. ID                                       : 4
  76. Format                                   : PGS
  77. Muxing mode                              : zlib
  78. Codec ID                                 : S_HDMV/PGS
  79. Codec ID/Info                            : Picture based subtitle format used on BDs/HD-DVDs
  80. Duration                                 : 1 h 44 min
  81. Bit rate                                 : 53.0 kb/s
  82. Count of elements                        : 2894
  83. Stream size                              : 39.8 MiB (1%)
  84. Title                                    : cht&eng
  85. Language                                 : Chinese
  86. Default                                  : No
  87. Forced                                   : No
  88. Text #3
  89. ID                                       : 5
  90. Format                                   : PGS
  91. Muxing mode                              : zlib
  92. Codec ID                                 : S_HDMV/PGS
  93. Codec ID/Info                            : Picture based subtitle format used on BDs/HD-DVDs
  94. Duration                                 : 1 h 44 min
  95. Bit rate                                 : 26.6 kb/s
  96. Count of elements                        : 2894
  97. Stream size                              : 20.0 MiB (0%)
  98. Title                                    : CHS
  99. Language                                 : Chinese
  100. Default                                  : No
  101. Forced                                   : No
  102. Text #4
  103. ID                                       : 6
  104. Format                                   : PGS
  105. Muxing mode                              : zlib
  106. Codec ID                                 : S_HDMV/PGS
  107. Codec ID/Info                            : Picture based subtitle format used on BDs/HD-DVDs
  108. Duration                                 : 1 h 44 min
  109. Bit rate                                 : 26.9 kb/s
  110. Count of elements                        : 2894
  111. Stream size                              : 20.2 MiB (0%)
  112. Title                                    : CHT
  113. Language                                 : Chinese
  114. Default                                  : No
  115. Forced                                   : No
  116. Text #5
  117. ID                                       : 7
  118. Format                                   : PGS
  119. Muxing mode                              : zlib
  120. Codec ID                                 : S_HDMV/PGS
  121. Codec ID/Info                            : Picture based subtitle format used on BDs/HD-DVDs
  122. Duration                                 : 1 h 44 min
  123. Bit rate                                 : 28.2 kb/s
  124. Count of elements                        : 2948
  125. Stream size                              : 21.2 MiB (0%)
  126. Title                                    : Subtitle (PGS), Japanese, 1474 captions
  127. Language                                 : Japanese
  128. Default                                  : No
  129. Forced                                   : No
  130. Text #6
  131. ID                                       : 8
  132. Format                                   : PGS
  133. Muxing mode                              : zlib
  134. Codec ID                                 : S_HDMV/PGS
  135. Codec ID/Info                            : Picture based subtitle format used on BDs/HD-DVDs
  136. Duration                                 : 1 h 46 min
  137. Bit rate                                 : 60.6 kb/s
  138. Count of elements                        : 3981
  139. Stream size                              : 46.3 MiB (1%)
  140. Title                                    : Subtitle (PGS), English, 1990 captions
  141. Language                                 : English
  142. Default                                  : No
  143. Forced                                   : No
  144. Text #7
  145. ID                                       : 9
  146. Format                                   : PGS
  147. Muxing mode                              : zlib
  148. Codec ID                                 : S_HDMV/PGS
  149. Codec ID/Info                            : Picture based subtitle format used on BDs/HD-DVDs
  150. Duration                                 : 1 h 47 min
  151. Bit rate                                 : 50.3 kb/s
  152. Count of elements                        : 2915
  153. Stream size                              : 38.6 MiB (1%)
  154. Title                                    : Subtitle (PGS), French, 1457 captions
  155. Language                                 : French
  156. Default                                  : No
  157. Forced                                   : No
  158. Text #8
  159. ID                                       : 10
  160. Format                                   : PGS
  161. Muxing mode                              : zlib
  162. Codec ID                                 : S_HDMV/PGS
  163. Codec ID/Info                            : Picture based subtitle format used on BDs/HD-DVDs
  164. Duration                                 : 1 h 45 min
  165. Bit rate                                 : 49.5 kb/s
  166. Count of elements                        : 3274
  167. Stream size                              : 37.3 MiB (1%)
  168. Title                                    : Subtitle (PGS), Italian, 1637 captions
  169. Language                                 : Italian
  170. Default                                  : No
  171. Forced                                   : No
  172. Text #9
  173. ID                                       : 11
  174. Format                                   : PGS
  175. Muxing mode                              : zlib
  176. Codec ID                                 : S_HDMV/PGS
  177. Codec ID/Info                            : Picture based subtitle format used on BDs/HD-DVDs
  178. Duration                                 : 1 h 45 min
  179. Bit rate                                 : 57.8 kb/s
  180. Count of elements                        : 3274
  181. Stream size                              : 43.5 MiB (1%)
  182. Title                                    : Subtitle (PGS), German, 1637 captions
  183. Language                                 : German
  184. Default                                  : No
  185. Forced                                   : No
  186. Text #10
  187. ID                                       : 12
  188. Format                                   : PGS
  189. Muxing mode                              : zlib
  190. Codec ID                                 : S_HDMV/PGS
  191. Codec ID/Info                            : Picture based subtitle format used on BDs/HD-DVDs
  192. Duration                                 : 1 h 45 min
  193. Bit rate                                 : 52.2 kb/s
  194. Count of elements                        : 3276
  195. Stream size                              : 39.3 MiB (1%)
  196. Title                                    : Subtitle (PGS), Spanish, 1638 captions
  197. Language                                 : Spanish
  198. Default                                  : No
  199. Forced                                   : No
  200. Text #11
  201. ID                                       : 13
  202. Format                                   : PGS
  203. Muxing mode                              : zlib
  204. Codec ID                                 : S_HDMV/PGS
  205. Codec ID/Info                            : Picture based subtitle format used on BDs/HD-DVDs
  206. Duration                                 : 1 h 47 min
  207. Bit rate                                 : 49.0 kb/s
  208. Count of elements                        : 2893
  209. Stream size                              : 37.6 MiB (1%)
  210. Title                                    : Subtitle (PGS), Portuguese, 1446 captions
  211. Language                                 : Portuguese
  212. Default                                  : No
  213. Forced                                   : No
  214. Text #12
  215. ID                                       : 14
  216. Format                                   : PGS
  217. Muxing mode                              : zlib
  218. Codec ID                                 : S_HDMV/PGS
  219. Codec ID/Info                            : Picture based subtitle format used on BDs/HD-DVDs
  220. Duration                                 : 1 h 45 min
  221. Bit rate                                 : 52.1 kb/s
  222. Count of elements                        : 3258
  223. Stream size                              : 39.3 MiB (1%)
  224. Title                                    : Subtitle (PGS), Spanish, 1628 captions
  225. Language                                 : Spanish
  226. Default                                  : No
  227. Forced                                   : No
  228. Text #13
  229. ID                                       : 15
  230. Format                                   : PGS
  231. Muxing mode                              : zlib
  232. Codec ID                                 : S_HDMV/PGS
  233. Codec ID/Info                            : Picture based subtitle format used on BDs/HD-DVDs
  234. Duration                                 : 1 h 45 min
  235. Bit rate                                 : 52.2 kb/s
  236. Count of elements                        : 3279
  237. Stream size                              : 39.3 MiB (1%)
  238. Title                                    : Subtitle (PGS), Russian, 1639 captions
  239. Language                                 : Russian
  240. Default                                  : No
  241. Forced                                   : No
  242. Text #14
  243. ID                                       : 16
  244. Format                                   : PGS
  245. Muxing mode                              : zlib
  246. Codec ID                                 : S_HDMV/PGS
  247. Codec ID/Info                            : Picture based subtitle format used on BDs/HD-DVDs
  248. Duration                                 : 1 h 45 min
  249. Bit rate                                 : 49.8 kb/s
  250. Count of elements                        : 3274
  251. Stream size                              : 37.5 MiB (1%)
  252. Title                                    : Subtitle (PGS), Dutch, 1637 captions
  253. Language                                 : Dutch
  254. Default                                  : No
  255. Forced                                   : No
  256. Text #15
  257. ID                                       : 17
  258. Format                                   : PGS
  259. Muxing mode                              : zlib
  260. Codec ID                                 : S_HDMV/PGS
  261. Codec ID/Info                            : Picture based subtitle format used on BDs/HD-DVDs
  262. Duration                                 : 1 h 45 min
  263. Bit rate                                 : 52.2 kb/s
  264. Count of elements                        : 3274
  265. Stream size                              : 39.3 MiB (1%)
  266. Title                                    : Subtitle (PGS), Danish, 1637 captions
  267. Language                                 : Danish
  268. Default                                  : No
  269. Forced                                   : No
  270. Text #16
  271. ID                                       : 18
  272. Format                                   : PGS
  273. Muxing mode                              : zlib
  274. Codec ID                                 : S_HDMV/PGS
  275. Codec ID/Info                            : Picture based subtitle format used on BDs/HD-DVDs
  276. Duration                                 : 1 h 45 min
  277. Bit rate                                 : 48.4 kb/s
  278. Count of elements                        : 3274
  279. Stream size                              : 36.5 MiB (1%)
  280. Title                                    : Subtitle (PGS), Finnish, 1637 captions
  281. Language                                 : Finnish
  282. Default                                  : No
  283. Forced                                   : No
  284. Text #17
  285. ID                                       : 19
  286. Format                                   : PGS
  287. Muxing mode                              : zlib
  288. Codec ID                                 : S_HDMV/PGS
  289. Codec ID/Info                            : Picture based subtitle format used on BDs/HD-DVDs
  290. Duration                                 : 1 h 45 min
  291. Bit rate                                 : 50.9 kb/s
  292. Count of elements                        : 3275
  293. Stream size                              : 38.3 MiB (1%)
  294. Title                                    : Subtitle (PGS), Norwegian, 1637 captions
  295. Language                                 : Norwegian
  296. Default                                  : No
  297. Forced                                   : No
  298. Text #18
  299. ID                                       : 20
  300. Format                                   : PGS
  301. Muxing mode                              : zlib
  302. Codec ID                                 : S_HDMV/PGS
  303. Codec ID/Info                            : Picture based subtitle format used on BDs/HD-DVDs
  304. Duration                                 : 1 h 45 min
  305. Bit rate                                 : 50.0 kb/s
  306. Count of elements                        : 3274
  307. Stream size                              : 37.7 MiB (1%)
  308. Title                                    : Subtitle (PGS), Swedish, 1637 captions
  309. Language                                 : Swedish
  310. Default                                  : No
  311. Forced                                   : No
  312. Text #19
  313. ID                                       : 21
  314. Format                                   : PGS
  315. Muxing mode                              : zlib
  316. Codec ID                                 : S_HDMV/PGS
  317. Codec ID/Info                            : Picture based subtitle format used on BDs/HD-DVDs
  318. Duration                                 : 56 s 682 ms
  319. Bit rate                                 : 44.8 kb/s
  320. Count of elements                        : 20
  321. Stream size                              : 310 KiB (0%)
  322. Title                                    : Subtitle (PGS), Japanese, 10 captions
  323. Language                                 : Japanese
  324. Default                                  : No
  325. Forced                                   : No
  326. Text #20
  327. ID                                       : 22
  328. Format                                   : PGS
  329. Muxing mode                              : zlib
  330. Codec ID                                 : S_HDMV/PGS
  331. Codec ID/Info                            : Picture based subtitle format used on BDs/HD-DVDs
  332. Duration                                 : 1 h 47 min
  333. Bit rate                                 : 160 b/s
  334. Count of elements                        : 18
  335. Stream size                              : 126 KiB (0%)
  336. Title                                    : Subtitle (PGS), French, 9 captions
  337. Language                                 : French
  338. Default                                  : No
  339. Forced                                   : No
  340. Text #21
  341. ID                                       : 23
  342. Format                                   : PGS
  343. Muxing mode                              : zlib
  344. Codec ID                                 : S_HDMV/PGS
  345. Codec ID/Info                            : Picture based subtitle format used on BDs/HD-DVDs
  346. Duration                                 : 1 h 38 min
  347. Bit rate                                 : 766 b/s
  348. Count of elements                        : 42
  349. Stream size                              : 552 KiB (0%)
  350. Title                                    : Subtitle (PGS), Italian, 21 captions
  351. Language                                 : Italian
  352. Default                                  : No
  353. Forced                                   : No
  354. Text #22
  355. ID                                       : 24
  356. Format                                   : PGS
  357. Muxing mode                              : zlib
  358. Codec ID                                 : S_HDMV/PGS
  359. Codec ID/Info                            : Picture based subtitle format used on BDs/HD-DVDs
  360. Duration                                 : 1 h 38 min
  361. Bit rate                                 : 881 b/s
  362. Count of elements                        : 42
  363. Stream size                              : 636 KiB (0%)
  364. Title                                    : Subtitle (PGS), German, 21 captions
  365. Language                                 : German
  366. Default                                  : No
  367. Forced                                   : No
  368. Text #23
  369. ID                                       : 25
  370. Format                                   : PGS
  371. Muxing mode                              : zlib
  372. Codec ID                                 : S_HDMV/PGS
  373. Codec ID/Info                            : Picture based subtitle format used on BDs/HD-DVDs
  374. Duration                                 : 1 h 38 min
  375. Bit rate                                 : 1 366 b/s
  376. Count of elements                        : 82
  377. Stream size                              : 985 KiB (0%)
  378. Title                                    : Subtitle (PGS), Spanish, 41 captions
  379. Language                                 : Spanish
  380. Default                                  : No
  381. Forced                                   : No
  382. Text #24
  383. ID                                       : 26
  384. Format                                   : PGS
  385. Muxing mode                              : zlib
  386. Codec ID                                 : S_HDMV/PGS
  387. Codec ID/Info                            : Picture based subtitle format used on BDs/HD-DVDs
  388. Duration                                 : 1 h 38 min
  389. Bit rate                                 : 173 b/s
  390. Count of elements                        : 12
  391. Stream size                              : 125 KiB (0%)
  392. Title                                    : Subtitle (PGS), Spanish, 6 captions
  393. Language                                 : Spanish
  394. Default                                  : No
  395. Forced                                   : No
  396. Text #25
  397. ID                                       : 27
  398. Format                                   : PGS
  399. Muxing mode                              : zlib
  400. Codec ID                                 : S_HDMV/PGS
  401. Codec ID/Info                            : Picture based subtitle format used on BDs/HD-DVDs
  402. Duration                                 : 1 h 38 min
  403. Bit rate                                 : 206 b/s
  404. Count of elements                        : 17
  405. Stream size                              : 149 KiB (0%)
  406. Title                                    : Subtitle (PGS), Russian, 8 captions
  407. Language                                 : Russian
  408. Default                                  : No
  409. Forced                                   : No
  410. Menu
  411. 00:00:00.000                             : en:Main Titles
  412. 00:01:35.053                             : en:Mr. Spencer's Friends
  413. 00:07:11.097                             : en:One Man's Family
  414. 00:16:49.634                             : en:Uncle Charlie
  415. 00:21:01.635                             : en:Gifts
  416. 00:26:03.520                             : en:That Tune...
  417. 00:30:10.809                             : en:The Newspaper
  418. 00:34:42.038                             : en:Man of the Moment
  419. 00:39:59.564                             : en:$40,000
  420. 00:43:27.480                             : en:The Questionnaire Man
  421. 00:51:58.240                             : en:A Detective
  422. 00:56:18.458                             : en:The Need to Know
  423. 01:10:16.838                             : en:The Real Uncle Charlie
  424. 01:18:49.016                             : en:Fair Warning
  425. 01:30:01.021                             : en:"Accidents"
  426. 01:43:05.304                             : en:The Last Waltz
  427. 01:46:03.649                             : en:A Hateful World
  428. 01:47:31.445                             : en:End Titles
复制代码

















保举请利用qBittorrent,utorrent,transmission等标准BT软件下载!以获得最快速度。奉求保种!





回复

使用道具 举报

懒得打字嘛,点击右侧快捷回复 【右侧内容,后台自定义】
您需要登录后才可以回帖 登录 | 立即加入

本版积分规则

Archiver|小黑屋| 蓝光电影网 |网站地图

Copyright © 2021 Comsenz Inc. Powered by 蓝光电影网

蓝光电影网

本站内容由用户自主分享和转载自互联网,转载目的在于传递更多信息,并不代表本网赞同其观点和对其真实性负责。

如有侵权、违反国家法律政策行为,请联系我们,我们会第一时间及时清除和处理!

举报反馈邮箱:[email protected]

快速回复 返回顶部 返回列表