找回密码

蓝光电影网

查看: 21|回复: 0

[剧情] 赌博默示录3[简繁字幕].Kaiji3.Final.Game.2020.BluRay.1080p.x265.10bit.DDP.5.1-MiniHD 6.81GB

[复制链接]
蓝光币
7
发表于 2022-7-27 02:09:29 | 显示全部楼层 |阅读模式


◎标  题 赌博默示录3
◎译  名 开司3:终极游戏 / 赌博默示录3:终极游戏 / 赌博默示录:终极游戏 / 赌博默示录:Final Game / カイジ Final Game
◎片  名 カイジ ファイナルゲーム
◎年  代 2020
◎产  地 日本
◎类  别 剧情
◎语  言 日语
◎上映日期 2020-01-10(日本)
◎IMDb评分 4.9/10 (375人评价)
◎IMDb链接 https://www.imdb.com/title/tt10423160/
◎豆瓣评分 5.5/10 (6960人评价)
◎豆瓣链接 https://movie.douban.com/subject/30458826/
◎片  长 128分钟
◎导  演 佐藤东弥 Tôya Satô
◎编  剧 福本伸行 Nobuyuki Fukumoto
       德永友一 Yuichi Tokunaga
◎演  员 藤原龙也 Tatsuya Fujiwara
       福士苍汰 Sôta Fukushi
       关水渚 Nagisa Sekimizu
       新田真剑佑 Mackenyu Arata
       吉田钢太郎 Kôtarô Yoshida
       菅野祐悟 Kanno Yuugo
◎简  介
  2020年,在东京奥运竣事后,日本的景气突缓慢低迷,酿成贫困的弱者能轻易被击垮的社会。被派遣公司当做傻子,领微薄的薪水过着出错生活的伊藤开司(藤原龙也 饰),某天再次碰见了成为帝爱团体社长的大槻太郎,大槻告诉开司在某位有钱长者所举行的活动中,可以一获千金的机遇…
  1. ##### MediaInfo ######
  2. General
  3. Unique ID                                : 34987777633421750274161096569130770824 (0x1A52669EF81AECA2D1AA4F82F05AE188)
  4. Complete name                            : Kaiji3.Final.Game.2020.BluRay.1080p.x265.10bit.DDP.5.1-MiniHD.mkv
  5. Format                                   : Matroska
  6. Format version                           : Version 4
  7. File size                                : 6.81 GiB
  8. Duration                                 : 2 h 8 min
  9. Overall bit rate                         : 7 607 kb/s
  10. Movie name                               : Kaiji.Final.Game.2020.BluRay.1080p.x265.10bit.DDP.5.1.MNHD-FRDS
  11. Encoded date                             : UTC 2021-01-30 22:46:43
  12. Writing application                      : mkvmerge v52.0.0 ('Secret For The Mad') 64-bit
  13. Writing library                          : libebml v1.4.1 + libmatroska v1.6.2
  14. Cover                                    : Yes
  15. Attachments                              : cover.jpg
  16. Video
  17. ID                                       : 1
  18. Format                                   : HEVC
  19. Format/Info                              : High Efficiency Video Coding
  20. Format profile                           : Main [email protected]@High
  21. Codec ID                                 : V_MPEGH/ISO/HEVC
  22. Duration                                 : 2 h 8 min
  23. Bit rate                                 : 6 445 kb/s
  24. Width                                    : 1 920 pixels
  25. Height                                   : 804 pixels
  26. Display aspect ratio                     : 2.40:1
  27. Frame rate mode                          : Constant
  28. Frame rate                               : 23.976 (24000/1001/53875) FPS
  29. Color space                              : YUV
  30. Chroma subsampling                       : 4:2:0
  31. Bit depth                                : 10 bits
  32. Bits/(Pixel*Frame)                       : 0.174
  33. Stream size                              : 5.77 GiB (85%)
  34. Writing library                          : x265 3.4+33-606265ac7:[Windows][MSVC 1928][64 bit] 10bit
  35. Encoding settings                        : cpuid=538751111039 / frame-threads=3 / numa-pools=14 / wpp / pmode / no-pme / no-psnr / no-ssim / log-level=2 / input-csp=1 / input-res=1920x804 / interlace=0 / total-frames=184320 / level-idc=0 / high-tier=1 / uhd-bd=0 / ref=4 / no-allow-non-conformance / no-repeat-headers / annexb / no-aud / no-hrd / info / hash=0 / no-temporal-layers / no-open-gop / min-keyint=1 / keyint=250 / gop-lookahead=0 / bframes=6 / b-adapt=2 / b-pyramid / bframe-bias=0 / rc-lookahead=80 / lookahead-slices=0 / NTM4NzU=uuDQuD2mJt9fsCf / scenecut=40 / hist-scenecut=0 / radl=0 / no-splice / no-intra-refresh / ctu=32 / min-cu-size=8 / no-rect / no-amp / max-tu-size=32 / tu-inter-depth=4 / tu-intra-depth=4 / limit-tu=0 / rdoq-level=2 / dynamic-rd=0.00 / no-ssim-rd / signhide / no-tskip / nr-intra=0 / nr-inter=0 / no-constrained-intra / strong-intra-smoothing / max-merge=5 / limit-refs=0 / no-limit-modes / me=3 / subme=7 / merange=44 / temporal-mvp / no-frame-dup / no-hme / weightp / weightb / no-analyze-src-pics / deblock=-3:-3 / no-sao / no-sao-non-deblock / rd=4 / selective-sao=0 / no-early-skip / no-rskip / no-fast-intra / no-tskip-fast / no-cu-lossless / b-intra / no-splitrd-skip / rdpenalty=0 / psy-rd=1.50 / psy-rdoq=1.00 / no-rd-refine / no-lossless / cbqpoffs=-2 / crqpoffs=-2 / rc=crf / crf=18.0 / qcomp=0.65 / qpstep=4 / stats-write=0 / stats-read=0 / vbv-maxrate=160000 / vbv-bufsize=160000 / vbv-init=0.9 / min-vbv-fullness=50.0 / max-vbv-fullness=80.0 / crf-max=0.0 / crf-min=0.0 / ipratio=1.30 / pbratio=1.20 / aq-mode=2 / aq-strength=0.90 / no-cutree / zone-count=0 / no-strict-cbr / qg-size=8 / no-rc-grain / qpmax=69 / qpmin=0 / no-const-vbv / sar=0 / overscan=0 / videoformat=5 / range=0 / colorprim=1 / transfer=1 / colormatrix=1 / chromaloc=0 / display-window=0 / cll=0,0 / min-luma=0 / max-luma=1023 / log2-max-poc-lsb=8 / vui-timing-info / vui-hrd-info / slices=1 / no-opt-qp-pps / no-opt-ref-list-length-pps / no-multi-pass-opt-rps / scenecut-bias=0.05 / hist-threshold=0.03 / no-opt-cu-delta-qp / no-aq-motion / no-hdr10 / no-hdr10-opt / no-dhdr10-opt / no-idr-recovery-sei / analysis-reuse-level=0 / analysis-save-reuse-level=0 / analysis-load-reuse-level=0 / scale-factor=0 / refine-intra=0 / refine-inter=0 / refine-mv=1 / refine-ctu-distortion=0 / no-limit-sao / ctu-info=0 / no-lowpass-dct / refine-analysis-type=0 / copy-pic=1 / max-ausize-factor=1.0 / no-dynamic-refine / no-single-sei / no-hevc-aq / no-svt / no-field / qp-adaptation-range=1.00 / scenecut-aware-qp=0conformance-window-offsets / right=0 / bottom=0 / NTM4NzU= / decoder-max-rate=0 / no-vbv-live-multi-pass
  36. Default                                  : Yes
  37. Forced                                   : No
  38. Color range                              : Limited
  39. Color primaries                          : BT.709
  40. Transfer characteristics                 : BT.709
  41. Matrix coefficients                      : BT.709
  42. Audio
  43. ID                                       : 2
  44. Format                                   : E-AC-3
  45. Format/Info                              : Enhanced AC-3
  46. Commercial name                          : Dolby Digital Plus
  47. Codec ID                                 : A_EAC3
  48. Duration                                 : 2 h 8 min
  49. Bit rate mode                            : Constant
  50. Bit rate                                 : 1 023 kb/s
  51. Channel(s)                               : 6 channels
  52. Channel layout                           : L R C LFE Ls Rs
  53. Sampling rate                            : 48.0 kHz
  54. Frame rate                               : 93.750 FPS (512 SPF)
  55. Compression mode                         : Lossy
  56. Stream size                              : 938 MiB (13%)
  57. Title                                    : jpn
  58. Language                                 : Japanese
  59. Service kind                             : Complete Main
  60. Default                                  : Yes
  61. Forced                                   : No
  62. Text #1
  63. ID                                       : 3
  64. ID in the original source medium         : 4608 (0x1200)
  65. Format                                   : PGS
  66. Muxing mode                              : zlib
  67. Codec ID                                 : S_HDMV/PGS
  68. Codec ID/Info                            : Picture based subtitle format used on BDs/HD-DVDs
  69. Duration                                 : 2 h 4 min
  70. Bit rate                                 : 248 kb/s
  71. Count of elements                        : 10663
  72. Stream size                              : 221 MiB (3%)
  73. Title                                    : jpn
  74. Language                                 : Japanese
  75. Default                                  : Yes
  76. Forced                                   : No
  77. Original source medium                   : Blu-ray
  78. Text #2
  79. ID                                       : 4
  80. ID in the original source medium         : 4609 (0x1201)
  81. Format                                   : PGS
  82. Muxing mode                              : zlib
  83. Codec ID                                 : S_HDMV/PGS
  84. Codec ID/Info                            : Picture based subtitle format used on BDs/HD-DVDs
  85. Duration                                 : 2 h 4 min
  86. Bit rate                                 : 38.8 kb/s
  87. Count of elements                        : 3038
  88. Stream size                              : 34.5 MiB (0%)
  89. Title                                    : chs
  90. Language                                 : Chinese
  91. Default                                  : No
  92. Forced                                   : No
  93. Original source medium                   : Blu-ray
  94. Text #3
  95. ID                                       : 5
  96. ID in the original source medium         : 4610 (0x1202)
  97. Format                                   : PGS
  98. Muxing mode                              : zlib
  99. Codec ID                                 : S_HDMV/PGS
  100. Codec ID/Info                            : Picture based subtitle format used on BDs/HD-DVDs
  101. Duration                                 : 2 h 4 min
  102. Bit rate                                 : 39.5 kb/s
  103. Count of elements                        : 3038
  104. Stream size                              : 35.1 MiB (1%)
  105. Title                                    : cht
  106. Language                                 : Chinese
  107. Default                                  : No
  108. Forced                                   : No
  109. Original source medium                   : Blu-ray
  110. Menu
  111. 00:00:00.000                             : en:第 01 章
  112. 00:14:14.186                             : en:第 02 章
  113. 00:26:29.754                             : en:第 03 章
  114. 00:33:06.526                             : en:第 04 章
  115. 00:42:43.852                             : en:第 05 章
  116. 00:59:24.227                             : en:第 06 章
  117. 01:09:53.856                             : en:第 07 章
  118. 01:16:42.014                             : en:第 08 章
  119. 01:29:50.134                             : en:第 09 章
  120. 01:43:37.461                             : en:第 10 章
  121. 01:53:00.690                             : en:第 11 章
  122. 02:03:03.542                             : en:第 12 章
复制代码



保举请利用qBittorrent,utorrent,transmission等标准BT软件下载!以获得最快速度。奉求保种!





回复

使用道具 举报

懒得打字嘛,点击右侧快捷回复 【右侧内容,后台自定义】
您需要登录后才可以回帖 登录 | 立即加入

本版积分规则

Archiver|小黑屋| 蓝光电影网 |网站地图

Copyright © 2021 Comsenz Inc. Powered by 蓝光电影网

蓝光电影网

本站内容由用户自主分享和转载自互联网,转载目的在于传递更多信息,并不代表本网赞同其观点和对其真实性负责。

如有侵权、违反国家法律政策行为,请联系我们,我们会第一时间及时清除和处理!

举报反馈邮箱:[email protected]

快速回复 返回顶部 返回列表