找回密码

蓝光电影网

查看: 29|回复: 0

[剧情] 赌博默示录[简繁英字幕].Kaiji.2009.BluRay.1080p.x265.10bit.DDP.7.1-MiniHD 11.16GB

[复制链接]
蓝光币
7
发表于 2022-7-27 02:09:35 | 显示全部楼层 |阅读模式


◎标  题 赌博默示录
◎译  名 开司:人生逆转游戏 / 赌博默示录:人生逆转游戏 / Kaiji: Jinsei gyakuten gêmu / Kaiji: The Ultimate Gambler
◎片  名 カイジ 人生逆転ゲーム
◎年  代 2009
◎产  地 日本
◎类  别 剧情
◎语  言 日语
◎上映日期 2009-10-10(日本)
◎IMDb评分 6.4/10 (1673人评价)
◎IMDb链接 https://www.imdb.com/title/tt1309449/
◎豆瓣评分 7.2/10 (30323人评价)
◎豆瓣链接 https://movie.douban.com/subject/3259956/
◎片  长 129分钟
◎导  演 佐藤东弥 Tôya Satô
◎编  剧 大森美香 Mika Ohmori
       福本伸行 Nobuyuki Fukumoto
◎演  员 藤原龙也 Tatsuya Fujiwara
       天海祐希 Yuki Amami
       香川照之 Teruyuki Kagawa
       山本太郎 Tarô Yamamoto
       光石研 Ken Mitsuishi
       松山研一 Ken'ichi Matsuyama
       松尾铃木 Suzuki Matsuo
       佐藤庆 Kei Satô
       吉高由里子 Yuriko Yoshitaka
       载宁龙二 Ryuuji Sainei
       成河 Songha
       尚玄 Shogen
       铃木亮平 Ryohei Suzuki
       罇真佐子 Masako Motai
       丸山智己 Tomomi Maruyama
       村田充 Mitsuru Murata
◎标  签 日本 / 日本电影 / 天海祐希 / 藤原龙也 / 剧情 / 2009 / 香川照之 / 藤原竜也
◎简  介
    已经奔三的伊藤开司(藤原龙也 饰)做着无聊有趣的便当伙计工作,对财富的渴望换来的不外是些无法失落。某日,一位名叫远藤澟子(天海佑希 饰)的女人率领手下找到伊藤,要求他作为包管人了偿巨额高利贷债权。拮据的伊藤有力清债,只得依照远藤的倡议登上“希望号”赌船奋力一搏。但在上船的那一刻起,伊藤以及其他众多同病相连的所谓“失利者”便堕入了庞大财富帝国的圈套。在赌博游戏中失利的伊藤众人,今后沦为帝国的仆从,日日在地下工程中劳作,以期有朝一日可以离开债权重返自在。帝国主管利川根(香川照之 饰)等人冷血无情,用尽招数榨取仆从代价,不胜忍受剥削的伊藤终极挑选了九死平生的“勇者之路”,用生命为赌注向利川根倡议应战……                                                                      本片按照著名同名漫画改编。
  1. ##### MediaInfo ######
  2. General
  3. Unique ID                                : 163890236283181771898109499852781371292 (0x7B4C1C826B76BD5C700905E629A5BF9C)
  4. Complete name                            : Kaiji.2009.BluRay.1080p.x265.10bit.DDP.7.1-MiniHD.mkv
  5. Format                                   : Matroska
  6. Format version                           : Version 4
  7. File size                                : 11.2 GiB
  8. Duration                                 : 2 h 10 min
  9. Overall bit rate                         : 12.3 Mb/s
  10. Movie name                               : Kaiji - Blu-ray?
  11. Encoded date                             : UTC 2021-01-28 14:18:59
  12. Writing application                      : mkvmerge v52.0.0 ('Secret For The Mad') 64-bit
  13. Writing library                          : libebml v1.4.1 + libmatroska v1.6.2
  14. Cover                                    : Yes
  15. Attachments                              : cover.jpg
  16. Video
  17. ID                                       : 1
  18. Format                                   : HEVC
  19. Format/Info                              : High Efficiency Video Coding
  20. Format profile                           : Main [email protected]@High
  21. Codec ID                                 : V_MPEGH/ISO/HEVC
  22. Duration                                 : 2 h 10 min
  23. Bit rate                                 : 10.7 Mb/s
  24. Width                                    : 1 920 pixels
  25. Height                                   : 816 pixels
  26. Display aspect ratio                     : 2.35:1
  27. Frame rate mode                          : Constant
  28. Frame rate                               : 23.976 (24000/1001/53875) FPS
  29. Color space                              : YUV
  30. Chroma subsampling                       : 4:2:0
  31. Bit depth                                : 10 bits
  32. Bits/(Pixel*Frame)                       : 0.285
  33. Stream size                              : 9.73 GiB (87%)
  34. Writing library                          : x265 3.4+33-606265ac7:[Windows][MSVC 1928][64 bit] 10bit
  35. Encoding settings                        : cpuid=538751111039 / frame-threads=3 / numa-pools=14 / wpp / pmode / no-pme / no-psnr / no-ssim / log-level=2 / input-csp=1 / input-res=1920x816 / interlace=0 / total-frames=187177 / level-idc=0 / high-tier=1 / uhd-bd=0 / ref=4 / no-allow-non-conformance / no-repeat-headers / annexb / no-aud / no-hrd / info / hash=0 / no-temporal-layers / no-open-gop / min-keyint=1 / keyint=250 / gop-lookahead=0 / bframes=6 / b-adapt=2 / b-pyramid / bframe-bias=0 / rc-lookahead=80 / lookahead-slices=0 / NTM4NzU=uuDQuD2mJt9fsCf / scenecut=40 / hist-scenecut=0 / radl=0 / no-splice / no-intra-refresh / ctu=32 / min-cu-size=8 / no-rect / no-amp / max-tu-size=32 / tu-inter-depth=4 / tu-intra-depth=4 / limit-tu=0 / rdoq-level=2 / dynamic-rd=0.00 / no-ssim-rd / signhide / no-tskip / nr-intra=0 / nr-inter=0 / no-constrained-intra / strong-intra-smoothing / max-merge=5 / limit-refs=0 / no-limit-modes / me=3 / subme=7 / merange=44 / temporal-mvp / no-frame-dup / no-hme / weightp / weightb / no-analyze-src-pics / deblock=-3:-3 / no-sao / no-sao-non-deblock / rd=4 / selective-sao=0 / no-early-skip / no-rskip / no-fast-intra / no-tskip-fast / no-cu-lossless / b-intra / no-splitrd-skip / rdpenalty=0 / psy-rd=1.50 / psy-rdoq=1.00 / no-rd-refine / no-lossless / cbqpoffs=-2 / crqpoffs=-2 / rc=crf / crf=21.0 / qcomp=0.65 / qpstep=4 / stats-write=0 / stats-read=0 / vbv-maxrate=160000 / vbv-bufsize=160000 / vbv-init=0.9 / min-vbv-fullness=50.0 / max-vbv-fullness=80.0 / crf-max=0.0 / crf-min=0.0 / ipratio=1.30 / pbratio=1.20 / aq-mode=2 / aq-strength=0.90 / no-cutree / zone-count=0 / no-strict-cbr / qg-size=8 / no-rc-grain / qpmax=69 / qpmin=0 / no-const-vbv / sar=0 / overscan=0 / videoformat=5 / range=0 / colorprim=1 / transfer=1 / colormatrix=1 / chromaloc=0 / display-window=0 / cll=0,0 / min-luma=0 / max-luma=1023 / log2-max-poc-lsb=8 / vui-timing-info / vui-hrd-info / slices=1 / no-opt-qp-pps / no-opt-ref-list-length-pps / no-multi-pass-opt-rps / scenecut-bias=0.05 / hist-threshold=0.03 / no-opt-cu-delta-qp / no-aq-motion / no-hdr10 / no-hdr10-opt / no-dhdr10-opt / no-idr-recovery-sei / analysis-reuse-level=0 / analysis-save-reuse-level=0 / analysis-load-reuse-level=0 / scale-factor=0 / refine-intra=0 / refine-inter=0 / refine-mv=1 / refine-ctu-distortion=0 / no-limit-sao / ctu-info=0 / no-lowpass-dct / refine-analysis-type=0 / copy-pic=1 / max-ausize-factor=1.0 / no-dynamic-refine / no-single-sei / no-hevc-aq / no-svt / no-field / qp-adaptation-range=1.00 / scenecut-aware-qp=0conformance-window-offsets / right=0 / bottom=0 / NTM4NzU= / decoder-max-rate=0 / no-vbv-live-multi-pass
  36. Default                                  : Yes
  37. Forced                                   : No
  38. Color range                              : Limited
  39. Color primaries                          : BT.709
  40. Transfer characteristics                 : BT.709
  41. Matrix coefficients                      : BT.709
  42. Audio
  43. ID                                       : 2
  44. Format                                   : E-AC-3
  45. Format/Info                              : Enhanced AC-3
  46. Commercial name                          : Dolby Digital Plus
  47. Format profile                           : Blu-ray Disc
  48. Codec ID                                 : A_EAC3
  49. Duration                                 : 2 h 10 min
  50. Bit rate mode                            : Constant
  51. Bit rate                                 : 1 536 kb/s
  52. Channel(s)                               : 8 channels
  53. Channel layout                           : L R C LFE Ls Rs Lb Rb
  54. Sampling rate                            : 48.0 kHz
  55. Frame rate                               : 31.250 FPS (1536 SPF)
  56. Compression mode                         : Lossy
  57. Stream size                              : 1.40 GiB (13%)
  58. Service kind                             : Complete Main
  59. Default                                  : Yes
  60. Forced                                   : No
  61. Text #1
  62. ID                                       : 3
  63. ID in the original source medium         : 4609 (0x1201)
  64. Format                                   : PGS
  65. Muxing mode                              : zlib
  66. Codec ID                                 : S_HDMV/PGS
  67. Codec ID/Info                            : Picture based subtitle format used on BDs/HD-DVDs
  68. Duration                                 : 2 h 5 min
  69. Bit rate                                 : 27.0 kb/s
  70. Count of elements                        : 3070
  71. Stream size                              : 24.2 MiB (0%)
  72. Title                                    : chs
  73. Language                                 : Chinese
  74. Default                                  : Yes
  75. Forced                                   : No
  76. Original source medium                   : Blu-ray
  77. Text #2
  78. ID                                       : 4
  79. ID in the original source medium         : 4608 (0x1200)
  80. Format                                   : PGS
  81. Muxing mode                              : zlib
  82. Codec ID                                 : S_HDMV/PGS
  83. Codec ID/Info                            : Picture based subtitle format used on BDs/HD-DVDs
  84. Duration                                 : 2 h 5 min
  85. Bit rate                                 : 28.9 kb/s
  86. Count of elements                        : 3070
  87. Stream size                              : 25.9 MiB (0%)
  88. Title                                    : cht
  89. Language                                 : Chinese
  90. Default                                  : No
  91. Forced                                   : No
  92. Original source medium                   : Blu-ray
  93. Text #3
  94. ID                                       : 5
  95. ID in the original source medium         : 4610 (0x1202)
  96. Format                                   : PGS
  97. Muxing mode                              : zlib
  98. Codec ID                                 : S_HDMV/PGS
  99. Codec ID/Info                            : Picture based subtitle format used on BDs/HD-DVDs
  100. Duration                                 : 2 h 5 min
  101. Bit rate                                 : 29.5 kb/s
  102. Count of elements                        : 3071
  103. Stream size                              : 26.4 MiB (0%)
  104. Title                                    : eng
  105. Language                                 : English
  106. Default                                  : No
  107. Forced                                   : No
  108. Original source medium                   : Blu-ray
  109. Menu
  110. 00:00:00.000                             : en:CHAPTER:01
  111. 00:09:52.258                             : en:CHAPTER:02
  112. 00:26:13.071                             : en:CHAPTER:03
  113. 00:38:34.854                             : en:CHAPTER:04
  114. 00:52:29.938                             : en:CHAPTER:05
  115. 01:05:39.101                             : en:CHAPTER:06
  116. 01:21:39.895                             : en:CHAPTER:07
  117. 01:32:33.089                             : en:CHAPTER:08
  118. 01:50:02.596                             : en:CHAPTER:09
  119. 01:59:50.308                             : en:CHAPTER:10
复制代码



保举请利用qBittorrent,utorrent,transmission等标准BT软件下载!以获得最快速度。奉求保种!





回复

使用道具 举报

懒得打字嘛,点击右侧快捷回复 【右侧内容,后台自定义】
您需要登录后才可以回帖 登录 | 立即加入

本版积分规则

Archiver|小黑屋| 蓝光电影网 |网站地图

Copyright © 2021 Comsenz Inc. Powered by 蓝光电影网

蓝光电影网

本站内容由用户自主分享和转载自互联网,转载目的在于传递更多信息,并不代表本网赞同其观点和对其真实性负责。

如有侵权、违反国家法律政策行为,请联系我们,我们会第一时间及时清除和处理!

举报反馈邮箱:[email protected]

快速回复 返回顶部 返回列表