找回密码

蓝光电影网

查看: 13|回复: 0

[剧情] 赌博默示录2[简繁字幕].Kaiji.2.2011.BluRay.1080p.x265.10bit.DDP.5.1-MiniHD 6.39GB

[复制链接]
蓝光币
7
发表于 2022-7-27 02:09:31 | 显示全部楼层 |阅读模式


◎标  题 赌博默示录2
◎译  名 赌博默示录2:人生夺回游戏 / 开司2:人生夺回游戏 / Kaiji 2: Jinsei dakkai gêmu
◎片  名 カイジ2 人生奪回ゲーム
◎年  代 2011
◎产  地 日本
◎类  别 剧情
◎语  言 日语
◎上映日期 2011-11-05(日本)
◎IMDb评分 6.3/10 (915人评价)
◎IMDb链接 https://www.imdb.com/title/tt1904937/
◎豆瓣评分 6.7/10 (13671人评价)
◎豆瓣链接 https://movie.douban.com/subject/6124043/
◎片  长 133分钟
◎导  演 佐藤东弥 Tôya Satô
◎编  剧 福本伸行 Nobuyuki Fukumoto
◎演  员 藤原龙也 Tatsuya Fujiwara
       伊势谷友介 Yûsuke Iseya
       吉高由里子 Yuriko Yoshitaka
       生濑胜久 Katsuhisa Namase
       香川照之 Teruyuki Kagawa
       松尾铃木 Suzuki Matsuo
       柿泽勇人 Hayato Kakizawa
       光石研 Ken Mitsuishi
       岛田久作 Kyûsaku Shimada
       菜叶菜 Nahana
       梅舟惟永 Ariei Umefune
       山本太郎 Tarô Yamamoto
       森下能幸 Yoshiyuki Morishita
       白石隼也 Shun'ya Shiraishi
       木野雅仁 Masato Kino
       伊藤俊辅 Shunsuke Ito
       菅野祐悟 Kanno Yuugo
◎简  介
  时光流转,刻毒无情的一条圣也(伊势谷友介 饰)登天主爱会操纵者的宝座,他凭仗精明贪心的脑筋和狡猾无耻的手段让无数疯狂赌徒拜倒在自己的脚下,心甘情愿取出一切积储,并终极沦为地下设备内不见天日的仆从。与此同时,临时从地下设备中逃走出来的伊藤开司(藤原龙也 饰)想法要在14天内赚到2亿日元以解救那边的同伴。在这生死关头,他结识了人生跌入谷底的坂崎孝太郎(生濑胜久 饰)以及老对头利根川幸雄(香川照之 饰),他们决议应战帝爱会那台奖金高达10亿日元、被称为吃人沼泽的弹子机。石田大叔的女儿石田裕美(吉高由里子 饰)也介入进来,可是在计划的实施进程中险象环生,生死攸关的赌局就此拉开序幕……                                    
                                本片按照漫画家福本伸行的 “开司系列”(包括“默示录”、“破戒录”和“堕天录”)改编。
  1. ##### MediaInfo ######
  2. General
  3. Unique ID                                : 217711962996664986893609526716546321672 (0xA3C9CC834FD77041E3344306D0EE8D08)
  4. Complete name                            : Kaiji.2.2011.BluRay.1080p.x265.10bit.DDP.5.1-MiniHD.mkv
  5. Format                                   : Matroska
  6. Format version                           : Version 4
  7. File size                                : 6.39 GiB
  8. Duration                                 : 2 h 13 min
  9. Overall bit rate                         : 6 845 kb/s
  10. Movie name                               : Kaiji.2.2011.BluRay.1080p.x265.10bit.DDP.5.1.MNHD-FRDS
  11. Encoded date                             : UTC 2021-01-30 07:33:49
  12. Writing application                      : mkvmerge v52.0.0 ('Secret For The Mad') 64-bit
  13. Writing library                          : libebml v1.4.1 + libmatroska v1.6.2
  14. Video
  15. ID                                       : 1
  16. Format                                   : HEVC
  17. Format/Info                              : High Efficiency Video Coding
  18. Format profile                           : Main [email protected]@High
  19. Codec ID                                 : V_MPEGH/ISO/HEVC
  20. Duration                                 : 2 h 13 min
  21. Bit rate                                 : 6 027 kb/s
  22. Width                                    : 1 920 pixels
  23. Height                                   : 800 pixels
  24. Display aspect ratio                     : 2.40:1
  25. Frame rate mode                          : Constant
  26. Frame rate                               : 23.976 (24000/1001/53875) FPS
  27. Color space                              : YUV
  28. Chroma subsampling                       : 4:2:0
  29. Bit depth                                : 10 bits
  30. Bits/(Pixel*Frame)                       : 0.164
  31. Stream size                              : 5.63 GiB (88%)
  32. Writing library                          : x265 3.4+33-606265ac7:[Windows][MSVC 1928][64 bit] 10bit
  33. Encoding settings                        : cpuid=538751111039 / frame-threads=3 / numa-pools=14 / wpp / pmode / no-pme / no-psnr / no-ssim / log-level=2 / input-csp=1 / input-res=1920x800 / interlace=0 / total-frames=192273 / level-idc=0 / high-tier=1 / uhd-bd=0 / ref=4 / no-allow-non-conformance / no-repeat-headers / annexb / no-aud / no-hrd / info / hash=0 / no-temporal-layers / no-open-gop / min-keyint=1 / keyint=250 / gop-lookahead=0 / bframes=6 / b-adapt=2 / b-pyramid / bframe-bias=0 / rc-lookahead=80 / lookahead-slices=0 / NTM4NzU=uuDQuD2mJt9fsCf / scenecut=40 / hist-scenecut=0 / radl=0 / no-splice / no-intra-refresh / ctu=32 / min-cu-size=8 / no-rect / no-amp / max-tu-size=32 / tu-inter-depth=4 / tu-intra-depth=4 / limit-tu=0 / rdoq-level=2 / dynamic-rd=0.00 / no-ssim-rd / signhide / no-tskip / nr-intra=0 / nr-inter=0 / no-constrained-intra / strong-intra-smoothing / max-merge=5 / limit-refs=0 / no-limit-modes / me=3 / subme=7 / merange=44 / temporal-mvp / no-frame-dup / no-hme / weightp / weightb / no-analyze-src-pics / deblock=-3:-3 / no-sao / no-sao-non-deblock / rd=4 / selective-sao=0 / no-early-skip / no-rskip / no-fast-intra / no-tskip-fast / no-cu-lossless / b-intra / no-splitrd-skip / rdpenalty=0 / psy-rd=1.50 / psy-rdoq=1.00 / no-rd-refine / no-lossless / cbqpoffs=-2 / crqpoffs=-2 / rc=crf / crf=18.5 / qcomp=0.65 / qpstep=4 / stats-write=0 / stats-read=0 / vbv-maxrate=160000 / vbv-bufsize=160000 / vbv-init=0.9 / min-vbv-fullness=50.0 / max-vbv-fullness=80.0 / crf-max=0.0 / crf-min=0.0 / ipratio=1.30 / pbratio=1.20 / aq-mode=2 / aq-strength=0.90 / no-cutree / zone-count=0 / no-strict-cbr / qg-size=8 / no-rc-grain / qpmax=69 / qpmin=0 / no-const-vbv / sar=0 / overscan=0 / videoformat=5 / range=0 / colorprim=1 / transfer=1 / colormatrix=1 / chromaloc=0 / display-window=0 / cll=0,0 / min-luma=0 / max-luma=1023 / log2-max-poc-lsb=8 / vui-timing-info / vui-hrd-info / slices=1 / no-opt-qp-pps / no-opt-ref-list-length-pps / no-multi-pass-opt-rps / scenecut-bias=0.05 / hist-threshold=0.03 / no-opt-cu-delta-qp / no-aq-motion / no-hdr10 / no-hdr10-opt / no-dhdr10-opt / no-idr-recovery-sei / analysis-reuse-level=0 / analysis-save-reuse-level=0 / analysis-load-reuse-level=0 / scale-factor=0 / refine-intra=0 / refine-inter=0 / refine-mv=1 / refine-ctu-distortion=0 / no-limit-sao / ctu-info=0 / no-lowpass-dct / refine-analysis-type=0 / copy-pic=1 / max-ausize-factor=1.0 / no-dynamic-refine / no-single-sei / no-hevc-aq / no-svt / no-field / qp-adaptation-range=1.00 / scenecut-aware-qp=0conformance-window-offsets / right=0 / bottom=0 / NTM4NzU= / decoder-max-rate=0 / no-vbv-live-multi-pass
  34. Default                                  : Yes
  35. Forced                                   : No
  36. Color range                              : Limited
  37. Color primaries                          : BT.709
  38. Transfer characteristics                 : BT.709
  39. Matrix coefficients                      : BT.709
  40. Audio
  41. ID                                       : 2
  42. Format                                   : E-AC-3
  43. Format/Info                              : Enhanced AC-3
  44. Commercial name                          : Dolby Digital Plus
  45. Codec ID                                 : A_EAC3
  46. Duration                                 : 2 h 13 min
  47. Bit rate mode                            : Constant
  48. Bit rate                                 : 768 kb/s
  49. Channel(s)                               : 6 channels
  50. Channel layout                           : L R C LFE Ls Rs
  51. Sampling rate                            : 48.0 kHz
  52. Frame rate                               : 62.500 FPS (768 SPF)
  53. Compression mode                         : Lossy
  54. Stream size                              : 734 MiB (11%)
  55. Language                                 : Japanese
  56. Service kind                             : Complete Main
  57. Default                                  : Yes
  58. Forced                                   : No
  59. Text #1
  60. ID                                       : 3
  61. ID in the original source medium         : 4608 (0x1200)
  62. Format                                   : PGS
  63. Muxing mode                              : zlib
  64. Codec ID                                 : S_HDMV/PGS
  65. Codec ID/Info                            : Picture based subtitle format used on BDs/HD-DVDs
  66. Duration                                 : 2 h 9 min
  67. Bit rate                                 : 61.6 kb/s
  68. Count of elements                        : 5519
  69. Stream size                              : 56.9 MiB (1%)
  70. Language                                 : Japanese
  71. Default                                  : No
  72. Forced                                   : No
  73. Original source medium                   : Blu-ray
  74. Text #2
  75. ID                                       : 4
  76. ID in the original source medium         : 4609 (0x1201)
  77. Format                                   : PGS
  78. Muxing mode                              : zlib
  79. Codec ID                                 : S_HDMV/PGS
  80. Codec ID/Info                            : Picture based subtitle format used on BDs/HD-DVDs
  81. Duration                                 : 2 h 9 min
  82. Bit rate                                 : 22.0 kb/s
  83. Count of elements                        : 3804
  84. Stream size                              : 20.3 MiB (0%)
  85. Title                                    : chs
  86. Language                                 : Chinese
  87. Default                                  : No
  88. Forced                                   : No
  89. Original source medium                   : Blu-ray
  90. Text #3
  91. ID                                       : 5
  92. ID in the original source medium         : 4610 (0x1202)
  93. Format                                   : PGS
  94. Muxing mode                              : zlib
  95. Codec ID                                 : S_HDMV/PGS
  96. Codec ID/Info                            : Picture based subtitle format used on BDs/HD-DVDs
  97. Duration                                 : 2 h 9 min
  98. Bit rate                                 : 22.8 kb/s
  99. Count of elements                        : 3806
  100. Stream size                              : 21.0 MiB (0%)
  101. Title                                    : cht
  102. Language                                 : Chinese
  103. Default                                  : Yes
  104. Forced                                   : No
  105. Original source medium                   : Blu-ray
  106. Menu
  107. 00:00:00.000                             : en:CHAPTER:01
  108. 00:08:03.608                             : en:CHAPTER:02
  109. 00:15:00.316                             : en:CHAPTER:03
  110. 00:22:30.432                             : en:CHAPTER:04
  111. 00:28:24.160                             : en:CHAPTER:05
  112. 00:37:00.843                             : en:CHAPTER:06
  113. 00:42:58.826                             : en:CHAPTER:07
  114. 00:48:56.892                             : en:CHAPTER:08
  115. 00:54:24.302                             : en:CHAPTER:09
  116. 01:04:05.341                             : en:CHAPTER:10
  117. 01:10:15.419                             : en:CHAPTER:11
  118. 01:20:55.851                             : en:CHAPTER:12
  119. 01:31:42.246                             : en:CHAPTER:13
  120. 01:40:35.487                             : en:CHAPTER:14
  121. 01:55:17.952                             : en:CHAPTER:15
  122. 01:59:00.883                             : en:CHAPTER:16
  123. 02:10:02.544                             : en:CHAPTER:17
复制代码

















保举请利用qBittorrent,utorrent,transmission等标准BT软件下载!以获得最快速度。奉求保种!





回复

使用道具 举报

懒得打字嘛,点击右侧快捷回复 【右侧内容,后台自定义】
您需要登录后才可以回帖 登录 | 立即加入

本版积分规则

Archiver|小黑屋| 蓝光电影网 |网站地图

Copyright © 2021 Comsenz Inc. Powered by 蓝光电影网

蓝光电影网

本站内容由用户自主分享和转载自互联网,转载目的在于传递更多信息,并不代表本网赞同其观点和对其真实性负责。

如有侵权、违反国家法律政策行为,请联系我们,我们会第一时间及时清除和处理!

举报反馈邮箱:[email protected]

快速回复 返回顶部 返回列表