找回密码

蓝光电影网

查看: 26|回复: 0

[剧情] 诈欺游戏 电影版[简繁英字幕].Liar.Game.The.Final.Stage.2010.BluRay.1080p.x265.10bit-MiniHD 6.29GB

[复制链接]
蓝光币
7
发表于 2022-7-27 02:09:47 | 显示全部楼层 |阅读模式


◎标  题 诈欺游戏 电影版
◎译  名 讹诈游戏(港) / 诈欺游戏:最初的舞台 / 扯谎者的游戏 / 诈欺游戏3 终结篇 / Liar Game: The Final Stage
◎片  名 ライアーゲーム ザ・ファイナルステージ
◎年  代 2010
◎产  地 日本
◎类  别 剧情 / 惊悚
◎语  言 日语
◎上映日期 2010-03-06
◎IMDb链接 https://www.imdb.com/title/tt1423953/
◎豆瓣评分 7.9/10 (31358人评价)
◎豆瓣链接 https://movie.douban.com/subject/3718665/
◎片  长 133分钟
◎导  演 松山博昭 Hiroaki Matsuyama
◎编  剧 黑岩勉 Tsutomu Kuroiwa
       岡田道尚 Michinao Okada
       甲斐谷忍 Shinobu Kaitani
◎演  员 户田惠梨香 Erika Toda
       松田翔太 Shota Matsuda
       铃木浩介 Kosuke Suzuki
       铃木一真 Kazuma Suzuki
       田边诚一 Seiichi Tanabe
       关惠美 Megumi Seki
       永山绚斗 Kento Nagayama
       吉濑美智子 Michiko Kichise
       荒川良良 YosiYosi Arakawa
       和田聪宏 Toshihiro Wada
       渡边一计 Ikkei Watanabe
       滨田麻里 Mari Hamada
       松村雄基 Yûki Matsumura
       秋本祐希 Yuuki Akimoto
       坂本真 Makoto Sakamoto
       葛西幸菜 Kasai Yukina
       中田康隆 Yasutaka Nakata
◎简  介
  大门生神崎直(戸田恵梨香饰)某日失慎被卷入一个名为Liar Game的可怕游戏,游戏方式是对手们相互欺骗来获得巨额奖金。小直信仰着“人性本善论”,游戏进程中,不管遭受几多假话和变节,她都以最真挚的态度看待每小我。另一参赛者天赋诈欺师秋山深一(松田翔太饰)凭仗着他的天赋聪明脱颖而出,也护佑着小直一次次逢凶化吉,逃出劫运。                                    
                                Liar Game决赛举行,11位参赛者顶峰对决。此次的主题是“伊甸园的果实”,只要集满红苹果,全员都能得胜,否则众人将面临被放逐失乐园的悲凉地步。有几多人性的弱点将被表暴露来?秋山将使出怎样的天赋招数力压群雄?小直的美好信心能帮助大师逃出Liar Game的生天,还是会再次被残暴的现实击溃?
  1. ##### MediaInfo ######
  2. General
  3. Unique ID                                : 28914110689109850127756523405115819422 (0x15C0A7B8828BEE5400AE635A090E859E)
  4. Complete name                            : Liar.Game.The.Final.Stage.2010.BluRay.1080p.x265.10bit-MiniHD.mkv
  5. Format                                   : Matroska
  6. Format version                           : Version 4
  7. File size                                : 6.29 GiB
  8. Duration                                 : 2 h 13 min
  9. Overall bit rate                         : 6 737 kb/s
  10. Movie name                               : Liar Game The Final Stage
  11. Encoded date                             : UTC 2021-01-23 14:53:36
  12. Writing application                      : mkvmerge v52.0.0 ('Secret For The Mad') 64-bit
  13. Writing library                          : libebml v1.4.1 + libmatroska v1.6.2
  14. Cover                                    : Yes
  15. Attachments                              : cover.jpg
  16. Video
  17. ID                                       : 1
  18. Format                                   : HEVC
  19. Format/Info                              : High Efficiency Video Coding
  20. Format profile                           : Main [email protected]@High
  21. Codec ID                                 : V_MPEGH/ISO/HEVC
  22. Duration                                 : 2 h 13 min
  23. Bit rate                                 : 5 660 kb/s
  24. Width                                    : 1 920 pixels
  25. Height                                   : 1 080 pixels
  26. Display aspect ratio                     : 16:9
  27. Frame rate mode                          : Constant
  28. Frame rate                               : 23.976 (24000/1001/53875) FPS
  29. Color space                              : YUV
  30. Chroma subsampling                       : 4:2:0
  31. Bit depth                                : 10 bits
  32. Bits/(Pixel*Frame)                       : 0.114
  33. Stream size                              : 5.28 GiB (84%)
  34. Writing library                          : x265 3.4+33-606265ac7:[Windows][MSVC 1928][64 bit] 10bit
  35. Encoding settings                        : cpuid=538751111039 / frame-threads=3 / numa-pools=14 / wpp / pmode / no-pme / no-psnr / no-ssim / log-level=2 / input-csp=1 / input-res=1920x1080 / interlace=0 / total-frames=192192 / level-idc=0 / high-tier=1 / uhd-bd=0 / ref=4 / no-allow-non-conformance / no-repeat-headers / annexb / no-aud / no-hrd / info / hash=0 / no-temporal-layers / no-open-gop / min-keyint=1 / keyint=250 / gop-lookahead=0 / bframes=6 / b-adapt=2 / b-pyramid / bframe-bias=0 / rc-lookahead=80 / lookahead-slices=0 / NTM4NzU=uuDQuD2mJt9fsCf / scenecut=40 / hist-scenecut=0 / radl=0 / no-splice / no-intra-refresh / ctu=32 / min-cu-size=8 / no-rect / no-amp / max-tu-size=32 / tu-inter-depth=4 / tu-intra-depth=4 / limit-tu=0 / rdoq-level=2 / dynamic-rd=0.00 / no-ssim-rd / signhide / no-tskip / nr-intra=0 / nr-inter=0 / no-constrained-intra / strong-intra-smoothing / max-merge=5 / limit-refs=0 / no-limit-modes / me=3 / subme=7 / merange=44 / temporal-mvp / no-frame-dup / no-hme / weightp / weightb / no-analyze-src-pics / deblock=-3:-3 / no-sao / no-sao-non-deblock / rd=4 / selective-sao=0 / no-early-skip / no-rskip / no-fast-intra / no-tskip-fast / no-cu-lossless / b-intra / no-splitrd-skip / rdpenalty=0 / psy-rd=1.50 / psy-rdoq=1.00 / no-rd-refine / no-lossless / cbqpoffs=-2 / crqpoffs=-2 / rc=crf / crf=21.0 / qcomp=0.65 / qpstep=4 / stats-write=0 / stats-read=0 / vbv-maxrate=160000 / vbv-bufsize=160000 / vbv-init=0.9 / min-vbv-fullness=50.0 / max-vbv-fullness=80.0 / crf-max=0.0 / crf-min=0.0 / ipratio=1.30 / pbratio=1.20 / aq-mode=2 / aq-strength=0.90 / no-cutree / zone-count=0 / no-strict-cbr / qg-size=8 / no-rc-grain / qpmax=69 / qpmin=0 / no-const-vbv / sar=0 / overscan=0 / videoformat=5 / range=0 / colorprim=1 / transfer=1 / colormatrix=1 / chromaloc=0 / display-window=0 / cll=0,0 / min-luma=0 / max-luma=1023 / log2-max-poc-lsb=8 / vui-timing-info / vui-hrd-info / slices=1 / no-opt-qp-pps / no-opt-ref-list-length-pps / no-multi-pass-opt-rps / scenecut-bias=0.05 / hist-threshold=0.03 / no-opt-cu-delta-qp / no-aq-motion / no-hdr10 / no-hdr10-opt / no-dhdr10-opt / no-idr-recovery-sei / analysis-reuse-level=0 / analysis-save-reuse-level=0 / analysis-load-reuse-level=0 / scale-factor=0 / refine-intra=0 / refine-inter=0 / refine-mv=1 / refine-ctu-distortion=0 / no-limit-sao / ctu-info=0 / no-lowpass-dct / refine-analysis-type=0 / copy-pic=1 / max-ausize-factor=1.0 / no-dynamic-refine / no-single-sei / no-hevc-aq / no-svt / no-field / qp-adaptation-range=1.00 / scenecut-aware-qp=0conformance-window-offsets / right=0 / bottom=0 / NTM4NzU= / decoder-max-rate=0 / no-vbv-live-multi-pass
  36. Default                                  : Yes
  37. Forced                                   : No
  38. Color range                              : Limited
  39. Color primaries                          : BT.709
  40. Transfer characteristics                 : BT.709
  41. Matrix coefficients                      : BT.709
  42. Audio
  43. ID                                       : 2
  44. Format                                   : E-AC-3
  45. Format/Info                              : Enhanced AC-3
  46. Commercial name                          : Dolby Digital Plus
  47. Codec ID                                 : A_EAC3
  48. Duration                                 : 2 h 13 min
  49. Bit rate mode                            : Constant
  50. Bit rate                                 : 1 023 kb/s
  51. Channel(s)                               : 6 channels
  52. Channel layout                           : L R C LFE Ls Rs
  53. Sampling rate                            : 48.0 kHz
  54. Frame rate                               : 93.750 FPS (512 SPF)
  55. Compression mode                         : Lossy
  56. Stream size                              : 978 MiB (15%)
  57. Service kind                             : Complete Main
  58. Default                                  : Yes
  59. Forced                                   : No
  60. Text #1
  61. ID                                       : 3
  62. ID in the original source medium         : 4610 (0x1202)
  63. Format                                   : PGS
  64. Muxing mode                              : zlib
  65. Codec ID                                 : S_HDMV/PGS
  66. Codec ID/Info                            : Picture based subtitle format used on BDs/HD-DVDs
  67. Duration                                 : 2 h 12 min
  68. Bit rate                                 : 26.5 kb/s
  69. Count of elements                        : 2899
  70. Stream size                              : 25.2 MiB (0%)
  71. Title                                    : chs
  72. Language                                 : Chinese
  73. Default                                  : Yes
  74. Forced                                   : No
  75. Original source medium                   : Blu-ray
  76. Text #2
  77. ID                                       : 4
  78. ID in the original source medium         : 4611 (0x1203)
  79. Format                                   : PGS
  80. Muxing mode                              : zlib
  81. Codec ID                                 : S_HDMV/PGS
  82. Codec ID/Info                            : Picture based subtitle format used on BDs/HD-DVDs
  83. Duration                                 : 2 h 12 min
  84. Bit rate                                 : 27.3 kb/s
  85. Count of elements                        : 2899
  86. Stream size                              : 26.0 MiB (0%)
  87. Title                                    : cht
  88. Language                                 : Chinese
  89. Default                                  : No
  90. Forced                                   : No
  91. Original source medium                   : Blu-ray
  92. Text #3
  93. ID                                       : 5
  94. ID in the original source medium         : 4608 (0x1200)
  95. Format                                   : PGS
  96. Muxing mode                              : zlib
  97. Codec ID                                 : S_HDMV/PGS
  98. Codec ID/Info                            : Picture based subtitle format used on BDs/HD-DVDs
  99. Duration                                 : 2 h 12 min
  100. Bit rate                                 : 25.8 kb/s
  101. Count of elements                        : 2885
  102. Stream size                              : 24.5 MiB (0%)
  103. Title                                    : cht
  104. Language                                 : Chinese
  105. Default                                  : No
  106. Forced                                   : No
  107. Original source medium                   : Blu-ray
  108. Text #4
  109. ID                                       : 6
  110. ID in the original source medium         : 4609 (0x1201)
  111. Format                                   : PGS
  112. Muxing mode                              : zlib
  113. Codec ID                                 : S_HDMV/PGS
  114. Codec ID/Info                            : Picture based subtitle format used on BDs/HD-DVDs
  115. Duration                                 : 2 h 12 min
  116. Bit rate                                 : 26.6 kb/s
  117. Count of elements                        : 2883
  118. Stream size                              : 25.3 MiB (0%)
  119. Language                                 : English
  120. Default                                  : No
  121. Forced                                   : No
  122. Original source medium                   : Blu-ray
  123. Menu
  124. 00:00:00.000                             : en:CHAPTER:01
  125. 00:08:46.817                             : en:CHAPTER:02
  126. 00:20:36.443                             : en:CHAPTER:03
  127. 00:33:44.355                             : en:CHAPTER:04
  128. 00:46:11.351                             : en:CHAPTER:05
  129. 00:56:27.759                             : en:CHAPTER:06
  130. 01:08:30.064                             : en:CHAPTER:07
  131. 01:17:52.668                             : en:CHAPTER:08
  132. 01:27:20.151                             : en:CHAPTER:09
  133. 01:35:50.995                             : en:CHAPTER:10
  134. 01:50:59.194                             : en:CHAPTER:11
  135. 02:02:06.068                             : en:CHAPTER:12
复制代码



保举请利用qBittorrent,utorrent,transmission等标准BT软件下载!以获得最快速度。奉求保种!





回复

使用道具 举报

懒得打字嘛,点击右侧快捷回复 【右侧内容,后台自定义】
您需要登录后才可以回帖 登录 | 立即加入

本版积分规则

Archiver|小黑屋| 蓝光电影网 |网站地图

Copyright © 2021 Comsenz Inc. Powered by 蓝光电影网

蓝光电影网

本站内容由用户自主分享和转载自互联网,转载目的在于传递更多信息,并不代表本网赞同其观点和对其真实性负责。

如有侵权、违反国家法律政策行为,请联系我们,我们会第一时间及时清除和处理!

举报反馈邮箱:[email protected]

快速回复 返回顶部 返回列表