找回密码

蓝光电影网

查看: 30|回复: 0

[剧情] 记忆裂痕[国英多音轨/简繁英字幕].Paycheck.2003.1080p.BluRay.x265.10bit.DD/5.1-MiniHD 9.78GB

[复制链接]
蓝光币
7
发表于 2022-7-27 02:09:49 | 显示全部楼层 |阅读模式


◎标  题 记忆裂缝
◎译  名 致命报答(港) / 记忆裂缝(台) / 空头支票
◎片  名 Paycheck
◎年  代 2003
◎产  地 美国
◎类  别 行动 / 科幻 / 悬疑 / 惊悚
◎语  言 英语
◎上映日期 2004-04-09(中国大陆) / 2003-12-25(美国)
◎IMDb评分 6.3/10 (106605人评价)
◎IMDb链接 https://www.imdb.com/title/tt0338337/
◎豆瓣评分 7.3/10 (41930人评价)
◎豆瓣链接 https://movie.douban.com/subject/1308715/
◎片  长 119 分钟
◎导  演 吴宇森 John Woo
◎编  剧 菲利普·迪克 Philip K. Dick
       迪恩·乔格瑞斯 Dean Georgaris
◎演  员 本·阿弗莱克 Ben Affleck
       艾伦·艾克哈特 Aaron Eckhart
       乌玛·瑟曼 Uma Thurman
       保罗·吉亚玛提 Paul Giamatti
       科鲁姆·费奥瑞 Colm Feore
       乔·莫顿 Joe Morton
       迈克尔·C·豪尔 Michael C. Hall
       皮特·弗雷德曼 Peter Friedman
       凯瑟琳·莫里斯 Kathryn Morris
       伊万娜·米利塞维奇 Ivana Miličević
       富尔·切切里 Fulvio Cecere
       约翰·卡西尼 John Cassini
       考乐姆·吉斯·雷尼 Callum Keith Rennie
       米歇尔·哈里逊 Michelle Harrison
       约翰·戴维斯 John Davis
       约翰·鲍威尔 John Powell
       克里斯多福·劳斯 Christopher Rouse
       明迪·马丁 Mindy Marin
       威廉·桑德尔 William Sandell
       Elizabeth Wilcox Elizabeth Wilcox
       Erica Edell Phillips Erica Edell Phillips
       约翰·E·杰克森 John E. Jackson
       Norma Hill-Patton Norma Hill-Patton
       Gina Sherritt Gina Sherritt
       布莱恩·斯莫兹 Brian Smrz
       Dan Mansfield Dan Mansfield
       蒂姆·克罗斯比 Tim Crosbie
       Grant Adam Grant Adam
       Garson Yu Garson Yu
       Glenn Neufeld Glenn Neufeld
       琳达·德雷克 Linda Drake
◎标  签 科幻 / 悬疑 / 吴宇森 / 美国 / 行动 / 本·阿弗莱克 / 美国电影 / 记忆
◎简  介
  工程师詹宁斯(本·阿弗莱克 Ben Affleck饰)是个高科技天赋。他频频受聘于各类项目研讨,获得丰重报酬,但为了高度保密,条件是完工后他必须被删掉大脑中的短期记忆。此次詹宁斯的使命报答到达了天价,而他必须花费长达几年的时候投身于这个新产物研发。                                    
                                当产物完工后,使人意外的工作发生了。詹宁斯居然没有获得许诺的报答,取而代之的是一个信封,里面装着一封他自愿放弃报酬的声明。                                    
                                詹宁斯大为惊奇,当他要查个内情毕露时,却发觉麻烦惹得越来越大了。联邦观察局和公司的老板都对他穷追不舍,要把他置于死地。这一系列奥秘的事务,更让詹宁斯相信,背后必定有着不为人知的真相。公然,一场周密的诡计随着他的清查渐渐浮出水面。
  1. ##### MediaInfo ######
  2. General
  3. Unique ID                                : 248483981614366857578388780781724381694 (0xBAF0462AB52B3E6C3EC992EBB99631FE)
  4. Complete name                            : Paycheck.2003.1080p.BluRay.x265.10bit.DD+5.1-MiniHD.mkv
  5. Format                                   : Matroska
  6. Format version                           : Version 4
  7. File size                                : 9.77 GiB
  8. Duration                                 : 1 h 58 min
  9. Overall bit rate                         : 11.8 Mb/s
  10. Movie name                               : Paycheck.2003.1080p.BluRay.x265.10bit.DD+5.1.MNHD-FRDS
  11. Encoded date                             : UTC 2021-05-02 01:56:10
  12. Writing application                      : mkvmerge v56.1.0 ('My Friend') 64-bit
  13. Writing library                          : libebml v1.4.2 + libmatroska v1.6.4
  14. Cover                                    : Yes
  15. Attachments                              : cover.jpg
  16. Video
  17. ID                                       : 1
  18. Format                                   : HEVC
  19. Format/Info                              : High Efficiency Video Coding
  20. Format profile                           : Main [email protected]@High
  21. Codec ID                                 : V_MPEGH/ISO/HEVC
  22. Duration                                 : 1 h 58 min
  23. Bit rate                                 : 9 598 kb/s
  24. Width                                    : 1 920 pixels
  25. Height                                   : 820 pixels
  26. Display aspect ratio                     : 2.35:1
  27. Frame rate mode                          : Constant
  28. Frame rate                               : 23.976 (24000/1001/53875) FPS
  29. Color space                              : YUV
  30. Chroma subsampling                       : 4:2:0
  31. Bit depth                                : 10 bits
  32. Bits/(Pixel*Frame)                       : 0.254
  33. Stream size                              : 7.96 GiB (81%)
  34. Writing library                          : x265 3.5+8-57e817329:[Windows][MSVC 1928][64 bit] 10bit
  35. Encoding settings                        : cpuid=538751111039 / frame-threads=3 / numa-pools=8 / wpp / pmode / no-pme / no-psnr / no-ssim / log-level=2 / input-csp=1 / input-res=1920x820 / interlace=0 / total-frames=170856 / level-idc=0 / high-tier=1 / uhd-bd=0 / ref=4 / no-allow-non-conformance / no-repeat-headers / annexb / no-aud / no-hrd / info / hash=0 / no-temporal-layers / no-open-gop / min-keyint=1 / keyint=250 / gop-lookahead=0 / bframes=6 / b-adapt=2 / b-pyramid / bframe-bias=0 / rc-lookahead=80 / lookahead-slices=0 / NTM4NzU=uuDQuD2mJt9fsCf / scenecut=40 / hist-scenecut=0 / radl=0 / no-splice / no-intra-refresh / ctu=32 / min-cu-size=8 / no-rect / no-amp / max-tu-size=32 / tu-inter-depth=4 / tu-intra-depth=4 / limit-tu=0 / rdoq-level=2 / dynamic-rd=0.00 / no-ssim-rd / signhide / no-tskip / nr-intra=0 / nr-inter=0 / no-constrained-intra / strong-intra-smoothing / max-merge=5 / limit-refs=0 / no-limit-modes / me=3 / subme=7 / merange=57 / temporal-mvp / no-frame-dup / no-hme / weightp / weightb / no-analyze-src-pics / deblock=-3:-3 / no-sao / no-sao-non-deblock / rd=4 / selective-sao=0 / no-early-skip / no-rskip / no-fast-intra / no-tskip-fast / no-cu-lossless / b-intra / no-splitrd-skip / rdpenalty=0 / psy-rd=1.50 / psy-rdoq=1.00 / no-rd-refine / no-lossless / cbqpoffs=-2 / crqpoffs=-2 / rc=crf / crf=21.0 / qcomp=0.65 / qpstep=4 / stats-write=0 / stats-read=0 / vbv-maxrate=160000 / vbv-bufsize=160000 / vbv-init=0.9 / min-vbv-fullness=50.0 / max-vbv-fullness=80.0 / crf-max=0.0 / crf-min=0.0 / ipratio=1.30 / pbratio=1.20 / aq-mode=1 / aq-strength=1.00 / no-cutree / zone-count=0 / no-strict-cbr / qg-size=8 / no-rc-grain / qpmax=69 / qpmin=0 / no-const-vbv / sar=0 / overscan=0 / videoformat=5 / range=0 / colorprim=1 / transfer=1 / colormatrix=1 / chromaloc=0 / display-window=0 / cll=0,0 / min-luma=0 / max-luma=1023 / log2-max-poc-lsb=8 / vui-timing-info / vui-hrd-info / slices=1 / no-opt-qp-pps / no-opt-ref-list-length-pps / no-multi-pass-opt-rps / scenecut-bias=0.05 / hist-threshold=0.03 / no-opt-cu-delta-qp / no-aq-motion / no-hdr10 / no-hdr10-opt / no-dhdr10-opt / no-idr-recovery-sei / analysis-reuse-level=0 / analysis-save-reuse-level=0 / analysis-load-reuse-level=0 / scale-factor=0 / refine-intra=0 / refine-inter=0 / refine-mv=1 / refine-ctu-distortion=0 / no-limit-sao / ctu-info=0 / no-lowpass-dct / refine-analysis-type=0 / copy-pic=1 / max-ausize-factor=1.0 / no-dynamic-refine / no-single-sei / no-hevc-aq / no-svt / no-field / qp-adaptation-range=1.00 / scenecut-aware-qp=0conformance-window-offsets / right=0 / bottom=0 / NTM4NzU= / decoder-max-rate=0 / no-vbv-live-multi-pass
  36. Default                                  : Yes
  37. Forced                                   : No
  38. Color range                              : Limited
  39. Color primaries                          : BT.709
  40. Transfer characteristics                 : BT.709
  41. Matrix coefficients                      : BT.709
  42. Audio #1
  43. ID                                       : 2
  44. Format                                   : E-AC-3
  45. Format/Info                              : Enhanced AC-3
  46. Commercial name                          : Dolby Digital Plus
  47. Codec ID                                 : A_EAC3
  48. Duration                                 : 1 h 58 min
  49. Bit rate mode                            : Constant
  50. Bit rate                                 : 768 kb/s
  51. Channel(s)                               : 6 channels
  52. Channel layout                           : L R C LFE Ls Rs
  53. Sampling rate                            : 48.0 kHz
  54. Frame rate                               : 62.500 FPS (768 SPF)
  55. Compression mode                         : Lossy
  56. Stream size                              : 652 MiB (7%)
  57. Language                                 : English
  58. Service kind                             : Complete Main
  59. Default                                  : Yes
  60. Forced                                   : No
  61. Audio #2
  62. ID                                       : 3
  63. Format                                   : E-AC-3
  64. Format/Info                              : Enhanced AC-3
  65. Commercial name                          : Dolby Digital Plus
  66. Codec ID                                 : A_EAC3
  67. Duration                                 : 1 h 58 min
  68. Bit rate mode                            : Constant
  69. Bit rate                                 : 768 kb/s
  70. Channel(s)                               : 6 channels
  71. Channel layout                           : L R C LFE Ls Rs
  72. Sampling rate                            : 48.0 kHz
  73. Frame rate                               : 62.500 FPS (768 SPF)
  74. Compression mode                         : Lossy
  75. Stream size                              : 653 MiB (7%)
  76. Language                                 : Chinese
  77. Service kind                             : Complete Main
  78. Default                                  : No
  79. Forced                                   : No
  80. Audio #3
  81. ID                                       : 4
  82. ID in the original source medium         : 4357 (0x1105)
  83. Format                                   : AC-3
  84. Format/Info                              : Audio Coding 3
  85. Commercial name                          : Dolby Digital
  86. Codec ID                                 : A_AC3
  87. Duration                                 : 1 h 58 min
  88. Bit rate mode                            : Constant
  89. Bit rate                                 : 224 kb/s
  90. Channel(s)                               : 2 channels
  91. Channel layout                           : L R
  92. Sampling rate                            : 48.0 kHz
  93. Frame rate                               : 31.250 FPS (1536 SPF)
  94. Compression mode                         : Lossy
  95. Stream size                              : 190 MiB (2%)
  96. Title                                    : Commentary By Director John Woo
  97. Language                                 : English
  98. Service kind                             : Complete Main
  99. Default                                  : No
  100. Forced                                   : No
  101. Original source medium                   : Blu-ray
  102. Audio #4
  103. ID                                       : 5
  104. ID in the original source medium         : 4358 (0x1106)
  105. Format                                   : AC-3
  106. Format/Info                              : Audio Coding 3
  107. Commercial name                          : Dolby Digital
  108. Codec ID                                 : A_AC3
  109. Duration                                 : 1 h 58 min
  110. Bit rate mode                            : Constant
  111. Bit rate                                 : 224 kb/s
  112. Channel(s)                               : 2 channels
  113. Channel layout                           : L R
  114. Sampling rate                            : 48.0 kHz
  115. Frame rate                               : 31.250 FPS (1536 SPF)
  116. Compression mode                         : Lossy
  117. Stream size                              : 190 MiB (2%)
  118. Title                                    : Commentary By Screenwriter Dean Georgaris
  119. Language                                 : English
  120. Service kind                             : Complete Main
  121. Default                                  : No
  122. Forced                                   : No
  123. Original source medium                   : Blu-ray
  124. Text #1
  125. ID                                       : 6
  126. ID in the original source medium         : 4610 (0x1202)
  127. Format                                   : PGS
  128. Muxing mode                              : zlib
  129. Codec ID                                 : S_HDMV/PGS
  130. Codec ID/Info                            : Picture based subtitle format used on BDs/HD-DVDs
  131. Duration                                 : 1 h 52 min
  132. Bit rate                                 : 19.5 kb/s
  133. Count of elements                        : 1694
  134. Stream size                              : 15.7 MiB (0%)
  135. Title                                    : CHS
  136. Language                                 : Chinese
  137. Default                                  : Yes
  138. Forced                                   : No
  139. Original source medium                   : Blu-ray
  140. Text #2
  141. ID                                       : 7
  142. ID in the original source medium         : 4620 (0x120C)
  143. Format                                   : PGS
  144. Muxing mode                              : zlib
  145. Codec ID                                 : S_HDMV/PGS
  146. Codec ID/Info                            : Picture based subtitle format used on BDs/HD-DVDs
  147. Duration                                 : 1 h 52 min
  148. Bit rate                                 : 20.0 kb/s
  149. Count of elements                        : 1694
  150. Stream size                              : 16.2 MiB (0%)
  151. Title                                    : CHT
  152. Language                                 : Chinese
  153. Default                                  : No
  154. Forced                                   : No
  155. Original source medium                   : Blu-ray
  156. Text #3
  157. ID                                       : 8
  158. ID in the original source medium         : 4608 (0x1200)
  159. Format                                   : PGS
  160. Muxing mode                              : zlib
  161. Codec ID                                 : S_HDMV/PGS
  162. Codec ID/Info                            : Picture based subtitle format used on BDs/HD-DVDs
  163. Duration                                 : 1 h 52 min
  164. Bit rate                                 : 26.9 kb/s
  165. Count of elements                        : 1980
  166. Stream size                              : 21.7 MiB (0%)
  167. Language                                 : English
  168. Default                                  : No
  169. Forced                                   : No
  170. Original source medium                   : Blu-ray
  171. Text #4
  172. ID                                       : 9
  173. ID in the original source medium         : 4609 (0x1201)
  174. Format                                   : PGS
  175. Muxing mode                              : zlib
  176. Codec ID                                 : S_HDMV/PGS
  177. Codec ID/Info                            : Picture based subtitle format used on BDs/HD-DVDs
  178. Duration                                 : 1 h 52 min
  179. Bit rate                                 : 29.8 kb/s
  180. Count of elements                        : 2280
  181. Stream size                              : 24.1 MiB (0%)
  182. Title                                    : SDH
  183. Language                                 : English
  184. Default                                  : No
  185. Forced                                   : No
  186. Original source medium                   : Blu-ray
  187. Text #5
  188. ID                                       : 10
  189. ID in the original source medium         : 4611 (0x1203)
  190. Format                                   : PGS
  191. Muxing mode                              : zlib
  192. Codec ID                                 : S_HDMV/PGS
  193. Codec ID/Info                            : Picture based subtitle format used on BDs/HD-DVDs
  194. Duration                                 : 1 h 52 min
  195. Bit rate                                 : 27.8 kb/s
  196. Count of elements                        : 1810
  197. Stream size                              : 22.5 MiB (0%)
  198. Language                                 : German
  199. Default                                  : No
  200. Forced                                   : No
  201. Original source medium                   : Blu-ray
  202. Text #6
  203. ID                                       : 11
  204. ID in the original source medium         : 4612 (0x1204)
  205. Format                                   : PGS
  206. Muxing mode                              : zlib
  207. Codec ID                                 : S_HDMV/PGS
  208. Codec ID/Info                            : Picture based subtitle format used on BDs/HD-DVDs
  209. Duration                                 : 1 h 52 min
  210. Bit rate                                 : 25.1 kb/s
  211. Count of elements                        : 1768
  212. Stream size                              : 20.3 MiB (0%)
  213. Language                                 : Italian
  214. Default                                  : No
  215. Forced                                   : No
  216. Original source medium                   : Blu-ray
  217. Text #7
  218. ID                                       : 12
  219. ID in the original source medium         : 4613 (0x1205)
  220. Format                                   : PGS
  221. Muxing mode                              : zlib
  222. Codec ID                                 : S_HDMV/PGS
  223. Codec ID/Info                            : Picture based subtitle format used on BDs/HD-DVDs
  224. Duration                                 : 1 h 52 min
  225. Bit rate                                 : 21.2 kb/s
  226. Count of elements                        : 1734
  227. Stream size                              : 17.1 MiB (0%)
  228. Language                                 : Spanish
  229. Default                                  : No
  230. Forced                                   : No
  231. Original source medium                   : Blu-ray
  232. Text #8
  233. ID                                       : 13
  234. ID in the original source medium         : 4614 (0x1206)
  235. Format                                   : PGS
  236. Muxing mode                              : zlib
  237. Codec ID                                 : S_HDMV/PGS
  238. Codec ID/Info                            : Picture based subtitle format used on BDs/HD-DVDs
  239. Duration                                 : 1 h 52 min
  240. Bit rate                                 : 18.8 kb/s
  241. Count of elements                        : 1520
  242. Stream size                              : 15.2 MiB (0%)
  243. Language                                 : Dutch
  244. Default                                  : No
  245. Forced                                   : No
  246. Original source medium                   : Blu-ray
  247. Text #9
  248. ID                                       : 14
  249. ID in the original source medium         : 4615 (0x1207)
  250. Format                                   : PGS
  251. Muxing mode                              : zlib
  252. Codec ID                                 : S_HDMV/PGS
  253. Codec ID/Info                            : Picture based subtitle format used on BDs/HD-DVDs
  254. Duration                                 : 1 h 52 min
  255. Bit rate                                 : 23.0 kb/s
  256. Count of elements                        : 1684
  257. Stream size                              : 18.5 MiB (0%)
  258. Language                                 : Danish
  259. Default                                  : No
  260. Forced                                   : No
  261. Original source medium                   : Blu-ray
  262. Text #10
  263. ID                                       : 15
  264. ID in the original source medium         : 4616 (0x1208)
  265. Format                                   : PGS
  266. Muxing mode                              : zlib
  267. Codec ID                                 : S_HDMV/PGS
  268. Codec ID/Info                            : Picture based subtitle format used on BDs/HD-DVDs
  269. Duration                                 : 1 h 52 min
  270. Bit rate                                 : 21.3 kb/s
  271. Count of elements                        : 1714
  272. Stream size                              : 17.2 MiB (0%)
  273. Language                                 : Finnish
  274. Default                                  : No
  275. Forced                                   : No
  276. Original source medium                   : Blu-ray
  277. Text #11
  278. ID                                       : 16
  279. ID in the original source medium         : 4617 (0x1209)
  280. Format                                   : PGS
  281. Muxing mode                              : zlib
  282. Codec ID                                 : S_HDMV/PGS
  283. Codec ID/Info                            : Picture based subtitle format used on BDs/HD-DVDs
  284. Duration                                 : 1 h 52 min
  285. Bit rate                                 : 20.6 kb/s
  286. Count of elements                        : 1692
  287. Stream size                              : 16.7 MiB (0%)
  288. Language                                 : Norwegian
  289. Default                                  : No
  290. Forced                                   : No
  291. Original source medium                   : Blu-ray
  292. Text #12
  293. ID                                       : 17
  294. ID in the original source medium         : 4618 (0x120A)
  295. Format                                   : PGS
  296. Muxing mode                              : zlib
  297. Codec ID                                 : S_HDMV/PGS
  298. Codec ID/Info                            : Picture based subtitle format used on BDs/HD-DVDs
  299. Duration                                 : 1 h 52 min
  300. Bit rate                                 : 22.1 kb/s
  301. Count of elements                        : 1634
  302. Stream size                              : 17.8 MiB (0%)
  303. Language                                 : Swedish
  304. Default                                  : No
  305. Forced                                   : No
  306. Original source medium                   : Blu-ray
  307. Text #13
  308. ID                                       : 18
  309. ID in the original source medium         : 4619 (0x120B)
  310. Format                                   : PGS
  311. Muxing mode                              : zlib
  312. Codec ID                                 : S_HDMV/PGS
  313. Codec ID/Info                            : Picture based subtitle format used on BDs/HD-DVDs
  314. Duration                                 : 1 h 53 min
  315. Bit rate                                 : 50.1 kb/s
  316. Count of elements                        : 2615
  317. Stream size                              : 40.6 MiB (0%)
  318. Language                                 : English
  319. Default                                  : No
  320. Forced                                   : No
  321. Original source medium                   : Blu-ray
  322. Text #14
  323. ID                                       : 19
  324. ID in the original source medium         : 4621 (0x120D)
  325. Format                                   : PGS
  326. Muxing mode                              : zlib
  327. Codec ID                                 : S_HDMV/PGS
  328. Codec ID/Info                            : Picture based subtitle format used on BDs/HD-DVDs
  329. Duration                                 : 1 h 53 min
  330. Bit rate                                 : 48.0 kb/s
  331. Count of elements                        : 2674
  332. Stream size                              : 38.9 MiB (0%)
  333. Language                                 : German
  334. Default                                  : No
  335. Forced                                   : No
  336. Original source medium                   : Blu-ray
  337. Text #15
  338. ID                                       : 20
  339. ID in the original source medium         : 4622 (0x120E)
  340. Format                                   : PGS
  341. Muxing mode                              : zlib
  342. Codec ID                                 : S_HDMV/PGS
  343. Codec ID/Info                            : Picture based subtitle format used on BDs/HD-DVDs
  344. Duration                                 : 1 h 53 min
  345. Bit rate                                 : 42.5 kb/s
  346. Count of elements                        : 2639
  347. Stream size                              : 34.4 MiB (0%)
  348. Language                                 : Italian
  349. Default                                  : No
  350. Forced                                   : No
  351. Original source medium                   : Blu-ray
  352. Text #16
  353. ID                                       : 21
  354. ID in the original source medium         : 4623 (0x120F)
  355. Format                                   : PGS
  356. Muxing mode                              : zlib
  357. Codec ID                                 : S_HDMV/PGS
  358. Codec ID/Info                            : Picture based subtitle format used on BDs/HD-DVDs
  359. Duration                                 : 1 h 53 min
  360. Bit rate                                 : 41.0 kb/s
  361. Count of elements                        : 2583
  362. Stream size                              : 33.2 MiB (0%)
  363. Language                                 : Spanish
  364. Default                                  : No
  365. Forced                                   : No
  366. Original source medium                   : Blu-ray
  367. Text #17
  368. ID                                       : 22
  369. ID in the original source medium         : 4624 (0x1210)
  370. Format                                   : PGS
  371. Muxing mode                              : zlib
  372. Codec ID                                 : S_HDMV/PGS
  373. Codec ID/Info                            : Picture based subtitle format used on BDs/HD-DVDs
  374. Duration                                 : 1 h 53 min
  375. Bit rate                                 : 47.7 kb/s
  376. Count of elements                        : 2375
  377. Stream size                              : 38.7 MiB (0%)
  378. Language                                 : English
  379. Default                                  : No
  380. Forced                                   : No
  381. Original source medium                   : Blu-ray
  382. Text #18
  383. ID                                       : 23
  384. ID in the original source medium         : 4625 (0x1211)
  385. Format                                   : PGS
  386. Muxing mode                              : zlib
  387. Codec ID                                 : S_HDMV/PGS
  388. Codec ID/Info                            : Picture based subtitle format used on BDs/HD-DVDs
  389. Duration                                 : 1 h 53 min
  390. Bit rate                                 : 39.1 kb/s
  391. Count of elements                        : 2357
  392. Stream size                              : 31.7 MiB (0%)
  393. Language                                 : French
  394. Default                                  : No
  395. Forced                                   : No
  396. Original source medium                   : Blu-ray
  397. Text #19
  398. ID                                       : 24
  399. ID in the original source medium         : 4626 (0x1212)
  400. Format                                   : PGS
  401. Muxing mode                              : zlib
  402. Codec ID                                 : S_HDMV/PGS
  403. Codec ID/Info                            : Picture based subtitle format used on BDs/HD-DVDs
  404. Duration                                 : 1 h 53 min
  405. Bit rate                                 : 43.3 kb/s
  406. Count of elements                        : 2349
  407. Stream size                              : 35.2 MiB (0%)
  408. Language                                 : German
  409. Default                                  : No
  410. Forced                                   : No
  411. Original source medium                   : Blu-ray
  412. Text #20
  413. ID                                       : 25
  414. ID in the original source medium         : 4627 (0x1213)
  415. Format                                   : PGS
  416. Muxing mode                              : zlib
  417. Codec ID                                 : S_HDMV/PGS
  418. Codec ID/Info                            : Picture based subtitle format used on BDs/HD-DVDs
  419. Duration                                 : 1 h 53 min
  420. Bit rate                                 : 39.1 kb/s
  421. Count of elements                        : 2345
  422. Stream size                              : 31.8 MiB (0%)
  423. Language                                 : Italian
  424. Default                                  : No
  425. Forced                                   : No
  426. Original source medium                   : Blu-ray
  427. Text #21
  428. ID                                       : 26
  429. ID in the original source medium         : 4628 (0x1214)
  430. Format                                   : PGS
  431. Muxing mode                              : zlib
  432. Codec ID                                 : S_HDMV/PGS
  433. Codec ID/Info                            : Picture based subtitle format used on BDs/HD-DVDs
  434. Duration                                 : 1 h 53 min
  435. Bit rate                                 : 39.8 kb/s
  436. Count of elements                        : 2283
  437. Stream size                              : 32.3 MiB (0%)
  438. Language                                 : Spanish
  439. Default                                  : No
  440. Forced                                   : No
  441. Original source medium                   : Blu-ray
  442. Menu
  443. 00:00:00.000                             : Chapter 01
  444. 00:06:33.518                             : Chapter 02
  445. 00:09:28.109                             : Chapter 03
  446. 00:12:03.431                             : Chapter 04
  447. 00:15:07.740                             : Chapter 05
  448. 00:18:15.135                             : Chapter 06
  449. 00:25:13.887                             : Chapter 07
  450. 00:29:32.353                             : Chapter 08
  451. 00:34:15.386                             : Chapter 09
  452. 00:40:01.899                             : Chapter 10
  453. 00:43:32.610                             : Chapter 11
  454. 00:47:51.869                             : Chapter 12
  455. 00:57:11.302                             : Chapter 13
  456. 01:00:26.497                             : Chapter 14
  457. 01:06:05.169                             : Chapter 15
  458. 01:10:56.585                             : Chapter 16
  459. 01:17:42.948                             : Chapter 17
  460. 01:20:41.795                             : Chapter 18
  461. 01:25:46.182                             : Chapter 19
  462. 01:32:33.171                             : Chapter 20
  463. 01:39:58.575                             : Chapter 21
  464. 01:50:29.623                             : Chapter 22
复制代码



保举请利用qBittorrent,utorrent,transmission等标准BT软件下载!以获得最快速度。奉求保种!





回复

使用道具 举报

懒得打字嘛,点击右侧快捷回复 【右侧内容,后台自定义】
您需要登录后才可以回帖 登录 | 立即加入

本版积分规则

Archiver|小黑屋| 蓝光电影网 |网站地图

Copyright © 2021 Comsenz Inc. Powered by 蓝光电影网

蓝光电影网

本站内容由用户自主分享和转载自互联网,转载目的在于传递更多信息,并不代表本网赞同其观点和对其真实性负责。

如有侵权、违反国家法律政策行为,请联系我们,我们会第一时间及时清除和处理!

举报反馈邮箱:[email protected]

快速回复 返回顶部 返回列表