找回密码

蓝光电影网

查看: 36|回复: 0

[剧情] 神话[简繁英字幕].Phenomena.1985.Italian.Cut.ARROW.BluRay.1080p.DTS-HD.MA5.1.x265.10bit-ALT 11.83GB

[复制链接]
蓝光币
7
发表于 2022-7-27 02:15:59 | 显示全部楼层 |阅读模式


◎标  题 神话
◎片  名 Phenomena
◎年  代 1985
◎产  地 意大利 / 瑞士
◎类  别 悬疑 / 惊悚 / 可骇
◎语  言 意大利语 / 瑞士德语 / 丹麦语
◎上映日期 1985
◎IMDb评分 6.8/10 (25341人评价)
◎IMDb链接 https://www.imdb.com/title/tt0087909/
◎豆瓣评分 7.1/10 (2419人评价)
◎豆瓣链接 https://movie.douban.com/subject/1294420/
◎片  长 116分钟
◎导  演 达里奥·阿基多 Dario Argento
◎编  剧 达里奥·阿基多 Dario Argento
       弗兰科·费里尼 Franco Ferrini
◎演  员 詹妮弗·康纳利 Jennifer Connelly
       达里亚·尼科洛迪 Daria Nicolodi
       费德里卡·马斯特罗瓦尼 Federica Mastroianni
       Fiorenza Tessari Fiorenza Tessari
       达莉拉·迪·拉扎罗 Dalila Di Lazzaro
       帕特里克·波查 Patrick Bauchau
       唐纳德·普利森斯 Donald Pleasence
       阿尔贝托·克拉科 Alberto Cracco
       卡斯帕·卡帕罗尼 Kaspar Capparoni
       马里奥·多纳托内 Mario Donatone
       达维德·马洛塔 Davide Marotta
       米歇尔·索伊 Michele Soavi
       福斯塔·阿韦利 Fausta Avelli
       达里奥·阿基多 Dario Argento
       达里奥·阿基多 Dario Argento
       西蒙·博斯维尔 Simon Boswell
       Goblin Goblin
       恩佐·斯基奥蒂 Enzo Sciotti
       米歇尔·索伊 Michele Soavi
◎标  签 意大利 / 可骇 / 惊悚 / 悬疑 / 詹妮弗·康纳利 / 1985 / JenniferConnelly / 意大利电影
◎简  介
  女配角就读的瑞士女子黉舍出现了一个疯狂杀手,女门生连续遭殃。由于詹妮弗得了梦游症,被教员和同学思疑是杀人凶手,但警方用科学方式证实了她的明净,詹妮弗为了找出实在的凶手,操纵她具有吸引昆虫的特别才能停止缉凶。
  1. ##### MediaInfo ######
  2. General
  3. Unique ID                                : 78121547639845225032994455386942128178 (0x3AC5A9AC9D6DB4E8C376F3C9AFC8C032)
  4. Complete name                            : Phenomena.1985.Italian.Cut.ARROW.BluRay.1080p.DTS-HD.MA5.1.x265.10bit-ALT.mkv
  5. Format                                   : Matroska
  6. Format version                           : Version 4
  7. File size                                : 11.8 GiB
  8. Duration                                 : 1 h 55 min
  9. Overall bit rate mode                    : Variable
  10. Overall bit rate                         : 14.6 Mb/s
  11. Movie name                               : Phenomena (1985) Italian Cut
  12. Encoded date                             : UTC 2022-03-17 02:17:20
  13. Writing application                      : mkvmerge v49.0.0 ('Sick Of Losing Soulmates') 64-bit
  14. Writing library                          : libebml v1.4.0 + libmatroska v1.6.1
  15. Video
  16. ID                                       : 1
  17. Format                                   : HEVC
  18. Format/Info                              : High Efficiency Video Coding
  19. Format profile                           : Main [email protected]@High
  20. Codec ID                                 : V_MPEGH/ISO/HEVC
  21. Duration                                 : 1 h 55 min
  22. Bit rate                                 : 12.6 Mb/s
  23. Width                                    : 1 792 pixels
  24. Height                                   : 1 080 pixels
  25. Display aspect ratio                     : 5:3
  26. Frame rate mode                          : Constant
  27. Frame rate                               : 23.976 (24000/1001/53875) FPS
  28. Color space                              : YUV
  29. Chroma subsampling                       : 4:2:0
  30. Bit depth                                : 10 bits
  31. Bits/(Pixel*Frame)                       : 0.271
  32. Stream size                              : 10.2 GiB (86%)
  33. Title                                    : HEVC, [email protected]@High, 24/1.001 fps @ 12584 kbps
  34. Writing library                          : x265 3.5+36-1f2c8da77:[Windows][GCC 11.2.0][64 bit] 10bit
  35. Encoding settings                        : cpuid=538751111039 / frame-threads=4 / numa-pools=16 / wpp / pmode / pme / no-psnr / no-ssim / log-level=2 / input-csp=1 / input-res=1792x1080 / interlace=0 / total-frames=166729 / level-idc=51 / high-tier=1 / uhd-bd=0 / ref=5 / no-allow-non-conformance / no-repeat-headers / annexb / no-aud / no-eob / no-eos / no-hrd / info / hash=0 / no-temporal-layers / open-gop / min-keyint=24 / keyint=240 / gop-lookahead=0 / bframes=6 / b-adapt=2 / b-pyramid / bframe-bias=0 / rc-lookahead=40 / lookahead-slices=0 / NTM4NzU=uuDQuD2mJt9fsCf / scenecut=40 / no-hist-scenecut / radl=0 / no-splice / no-intra-refresh / ctu=32 / min-cu-size=8 / no-rect / no-amp / max-tu-size=32 / tu-inter-depth=3 / tu-intra-depth=3 / limit-tu=4 / rdoq-level=2 / dynamic-rd=0.00 / no-ssim-rd / signhide / no-tskip / nr-intra=0 / nr-inter=0 / no-constrained-intra / no-strong-intra-smoothing / max-merge=4 / limit-refs=1 / limit-modes / me=3 / subme=4 / merange=25 / temporal-mvp / no-frame-dup / no-hme / weightp / weightb / no-analyze-src-pics / deblock=-3:-3 / no-sao / no-sao-non-deblock / rd=6 / selective-sao=0 / no-early-skip / rskip / no-fast-intra / no-tskip-fast / no-cu-lossless / b-intra / no-splitrd-skip / rdpenalty=0 / psy-rd=2.00 / psy-rdoq=1.00 / no-rd-refine / no-lossless / cbqpoffs=0 / crqpoffs=0 / rc=crf / crf=20.0 / qcomp=0.65 / qpstep=4 / stats-write=0 / stats-read=0 / vbv-maxrate=80000 / vbv-bufsize=80000 / vbv-init=0.9 / min-vbv-fullness=50.0 / max-vbv-fullness=80.0 / crf-max=0.0 / crf-min=0.0 / ipratio=1.40 / pbratio=1.30 / aq-mode=2 / aq-strength=0.85 / cutree / zone-count=0 / no-strict-cbr / qg-size=32 / no-rc-grain / qpmax=69 / qpmin=0 / no-const-vbv / sar=1 / overscan=0 / videoformat=5 / range=0 / colorprim=1 / transfer=1 / colormatrix=1 / chromaloc=0 / display-window=0 / cll=0,0 / min-luma=0 / max-luma=1023 / log2-max-poc-lsb=8 / vui-timing-info / vui-hrd-info / slices=1 / no-opt-qp-pps / no-opt-ref-list-length-pps / no-multi-pass-opt-rps / scenecut-bias=0.05 / hist-threshold=0.03 / no-opt-cu-delta-qp / no-aq-motion / no-hdr10 / no-hdr10-opt / no-dhdr10-opt / no-idr-recovery-sei / analysis-reuse-level=0 / analysis-save-reuse-level=0 / analysis-load-reuse-level=0 / scale-factor=0 / refine-intra=0 / refine-inter=0 / refine-mv=1 / refine-ctu-distortion=0 / no-limit-sao / ctu-info=0 / no-lowpass-dct / refine-analysis-type=0 / copy-pic=1 / max-ausize-factor=1.0 / no-dynamic-refine / no-single-sei / no-hevc-aq / no-svt / no-field / qp-adaptation-range=1.00 / scenecut-aware-qp=0conformance-window-offsets / right=0 / bottom=0 / NTM4NzU= / decoder-max-rate=0 / no-vbv-live-multi-pass
  36. Language                                 : English
  37. Default                                  : Yes
  38. Forced                                   : No
  39. Color range                              : Limited
  40. Color primaries                          : BT.709
  41. Transfer characteristics                 : BT.709
  42. Matrix coefficients                      : BT.709
  43. Audio #1
  44. ID                                       : 2
  45. Format                                   : DTS XLL
  46. Format/Info                              : Digital Theater Systems
  47. Commercial name                          : DTS-HD Master Audio
  48. Codec ID                                 : A_DTS
  49. Duration                                 : 1 h 55 min
  50. Bit rate mode                            : Variable
  51. Bit rate                                 : 1 769 kb/s
  52. Channel(s)                               : 6 channels
  53. Channel layout                           : C L R Ls Rs LFE
  54. Sampling rate                            : 48.0 kHz
  55. Frame rate                               : 93.750 FPS (512 SPF)
  56. Bit depth                                : 16 bits
  57. Compression mode                         : Lossless
  58. Stream size                              : 1.43 GiB (12%)
  59. Title                                    : English DTS-HD Master Audio 5.1 @ 1769 kbps
  60. Language                                 : English
  61. Default                                  : Yes
  62. Forced                                   : No
  63. Audio #2
  64. ID                                       : 3
  65. Format                                   : AC-3
  66. Format/Info                              : Audio Coding 3
  67. Commercial name                          : Dolby Digital
  68. Codec ID                                 : A_AC3
  69. Duration                                 : 1 h 55 min
  70. Bit rate mode                            : Constant
  71. Bit rate                                 : 192 kb/s
  72. Channel(s)                               : 2 channels
  73. Channel layout                           : L R
  74. Sampling rate                            : 48.0 kHz
  75. Frame rate                               : 31.250 FPS (1536 SPF)
  76. Compression mode                         : Lossy
  77. Stream size                              : 159 MiB (1%)
  78. Title                                    : Commentary by Troy Howarth, author of So Deadly, So Perverse: 50 Years of Italian Giallo Films
  79. Language                                 : English
  80. Service kind                             : Complete Main
  81. Default                                  : No
  82. Forced                                   : No
  83. Text #1
  84. ID                                       : 4
  85. Format                                   : PGS
  86. Codec ID                                 : S_HDMV/PGS
  87. Codec ID/Info                            : Picture based subtitle format used on BDs/HD-DVDs
  88. Duration                                 : 1 h 51 min
  89. Bit rate                                 : 18.7 kb/s
  90. Count of elements                        : 1496
  91. Stream size                              : 14.9 MiB (0%)
  92. Title                                    : English
  93. Language                                 : English
  94. Default                                  : No
  95. Forced                                   : No
  96. Text #2
  97. ID                                       : 5
  98. Format                                   : PGS
  99. Codec ID                                 : S_HDMV/PGS
  100. Codec ID/Info                            : Picture based subtitle format used on BDs/HD-DVDs
  101. Duration                                 : 1 h 52 min
  102. Bit rate                                 : 22.7 kb/s
  103. Count of elements                        : 2157
  104. Stream size                              : 18.3 MiB (0%)
  105. Title                                    : English (SDH)
  106. Language                                 : English
  107. Default                                  : No
  108. Forced                                   : No
  109. Text #3
  110. ID                                       : 6
  111. Format                                   : PGS
  112. Codec ID                                 : S_HDMV/PGS
  113. Codec ID/Info                            : Picture based subtitle format used on BDs/HD-DVDs
  114. Duration                                 : 1 h 51 min
  115. Bit rate                                 : 10.2 kb/s
  116. Count of elements                        : 1396
  117. Stream size                              : 8.16 MiB (0%)
  118. Title                                    : Chs/SUP  简体
  119. Language                                 : Chinese
  120. Default                                  : Yes
  121. Forced                                   : No
  122. Text #4
  123. ID                                       : 7
  124. Format                                   : PGS
  125. Codec ID                                 : S_HDMV/PGS
  126. Codec ID/Info                            : Picture based subtitle format used on BDs/HD-DVDs
  127. Duration                                 : 1 h 51 min
  128. Bit rate                                 : 10.6 kb/s
  129. Count of elements                        : 1396
  130. Stream size                              : 8.47 MiB (0%)
  131. Title                                    : Cht/SUP  繁体
  132. Language                                 : Chinese
  133. Default                                  : No
  134. Forced                                   : No
  135. Menu
  136. 00:00:00.000                             : en:Chapter 1
  137. 00:14:36.501                             : en:Chapter 2
  138. 00:20:04.745                             : en:Chapter 3
  139. 00:28:06.059                             : en:Chapter 4
  140. 00:39:40.712                             : en:Chapter 5
  141. 00:48:53.597                             : en:Chapter 6
  142. 01:01:12.460                             : en:Chapter 7
  143. 01:15:18.097                             : en:Chapter 8
  144. 01:24:50.919                             : en:Chapter 9
  145. 01:35:07.619                             : en:Chapter 10
  146. 01:41:19.031                             : en:Chapter 11
  147. 01:50:51.895                             : en:Chapter 12
复制代码

















保举请利用qBittorrent,utorrent,transmission等标准BT软件下载!以获得最快速度。奉求保种!





回复

使用道具 举报

懒得打字嘛,点击右侧快捷回复 【右侧内容,后台自定义】
您需要登录后才可以回帖 登录 | 立即加入

本版积分规则

Archiver|小黑屋| 蓝光电影网 |网站地图

Copyright © 2021 Comsenz Inc. Powered by 蓝光电影网

蓝光电影网

本站内容由用户自主分享和转载自互联网,转载目的在于传递更多信息,并不代表本网赞同其观点和对其真实性负责。

如有侵权、违反国家法律政策行为,请联系我们,我们会第一时间及时清除和处理!

举报反馈邮箱:[email protected]

快速回复 返回顶部 返回列表