找回密码

蓝光电影网

查看: 55|回复: 0

[剧情] 军中乐园[国语音轨/简繁英字幕].Paradise.in.Service.2014.BluRay.1080p.TrueHD.5.1.x264-ALT 9.17GB

[复制链接]
蓝光币
7
发表于 2022-7-27 02:16:05 | 显示全部楼层 |阅读模式


◎标  题 军中乐园
◎译  名 Paradise in Service
◎片  名 軍中樂園
◎年  代 2014
◎产  地 中国台湾 / 中国大陆
◎类  别 剧情 / 恋爱 / 历史
◎语  言 汉语普通话
◎上映日期 2014-09-05(中国台湾)
◎IMDb评分 6.6/10 (748人评价)
◎IMDb链接 https://www.imdb.com/title/tt4012914/
◎豆瓣评分 7.4/10 (73864人评价)
◎豆瓣链接 https://movie.douban.com/subject/20515070/
◎片  长 133分钟
◎导  演 钮承泽 Doze Niu Chen-Zer
◎编  剧 曾莉婷 Li-ting Tseng
       钮承泽 Doze Niu Chen-Zer
◎演  员 阮经天 Ethan Juan
       万茜 Qian Wan
       陈意涵 Ivy Chen
       陈建斌 Jianbin Chen
       王柏杰 Bo-Chieh Wang
       苗可丽 Keli Miao
       陈道贤 Daniel Chen
       洪胜德 Honduras
       吴志庆 McFly Wu
       廖启智 Kai Chi Liu
       石知田 Chih Tian Shih
       尚国伟 Guowei Shang
       项洪 Hong Xiang
       王锐 Rui Wang
       王淮仲 Huai-Chung Wang
       梁以辰 Yi-Chan Liang
       叶良财 Steve Yap
       王博玄 Bo-Syuan Wang
       张哲豪 Che-hao Chang
       施名帅 Ming-Shuai Shih
       雷婕熙 J.C Lei
       王千航 Qianhang Wang
       余月如 Yue-Ru Yu
       林子熙 Phoebe Lin
       陈以文 Yiwen Chen
       黄健玮 Chien-wei Huang
       脱一然 Yiran Tuo
       饶星星 Cincin Jao
       谢俊慧 Eugene Hsieh
       程相银 Xiangyin Cheng
       李迪恩 Deyn Lee
       萧子墨 Eric Hsiao
       钮承泽 Doze Niu Chen-Zer
       黄志明 Chih-ming Huang
       张雄师 Dajun Zhang
       王中军 Zhongjun Wang
       刘蔚然 Wei-Jan Liu
       王中磊 Zhonglei Wang
       杨庭恺 Bernard Yang
       魏伯勤 Boqin Wei
       李欣芸 Cincin Lee
       曹郁 Yu Cao
       刘三郎 Saburo Liu
       林志坚 Charlie Lam
       袁绪虎 HsuHu Yuan
       侯孝贤 Hsiao-hsien Hou
       陈俊宏 Chun-Hung Chen
       苏珮仪 Milk Su
       黄美清 Max Huang
       高佳霖 Chia-Lin Kao
       方绮伦 Chi-Lun Fang
       许力文 Li Wen Hsu
       林书宇 Tom Lin
       杜笃之 Du-Che Tu
       汤湘竹 Shiang-Chu Tang
◎标  签 台湾 / 台湾电影 / 历史 / 钮承泽 / 剧情 / 万茜 / 阮经天 / 军中乐园
◎简  介
  海龙菜鸟小宝(阮经天 饰)来到海天一色的金门,接待他的却是魔鬼士官长老张(陈建斌 饰)带来的铁血考验。惨遭退训后,他被分发到有“军中乐园”之称的特约茶室,却在这里碰到了新训中心的好友华兴(王柏杰 饰),也发现了老张对阿娇(陈意涵 饰)情之所钟的奥秘,苦守忠贞的他这时也被侍应生妮妮(万茜 饰)吸引,展开了一段幽微的情愫……                                    
                                就当一切看似美好之际,茶室出了意外,草木皆兵下,小宝偶然间又得知了妮妮深藏心底的奥秘!他的天下起头摆荡之际,变化相继而至……
  1. ##### MediaInfo ######
  2. General
  3. Unique ID                                : 200824962167406581954370084917359816138 (0x97157B172445FC1BAF170962BDBE2DCA)
  4. Complete name                            : Paradise.in.Service.2014.BluRay.1080p.TrueHD.5.1.x264-ALT.mkv
  5. Format                                   : Matroska
  6. Format version                           : Version 4
  7. File size                                : 9.17 GiB
  8. Duration                                 : 2 h 13 min
  9. Overall bit rate mode                    : Variable
  10. Overall bit rate                         : 9 805 kb/s
  11. Encoded date                             : UTC 2019-05-29 00:47:13
  12. Writing application                      : mkvmerge v8.3.0 ('Over the Horizon') 64bit
  13. Writing library                          : libebml v1.3.1 + libmatroska v1.4.2
  14. Video
  15. ID                                       : 1
  16. Format                                   : AVC
  17. Format/Info                              : Advanced Video Codec
  18. Format profile                           : [email protected]
  19. Format settings                          : CABAC / 5 Ref Frames
  20. Format settings, CABAC                   : Yes
  21. Format settings, Reference frames        : 5 frames
  22. Codec ID                                 : V_MPEG4/ISO/AVC
  23. Duration                                 : 2 h 13 min
  24. Bit rate                                 : 7 200 kb/s
  25. Width                                    : 1 920 pixels
  26. Height                                   : 804 pixels
  27. Display aspect ratio                     : 2.40:1
  28. Frame rate mode                          : Constant
  29. Frame rate                               : 24.000 FPS
  30. Color space                              : YUV
  31. Chroma subsampling                       : 4:2:0
  32. Bit depth                                : 8 bits
  33. Scan type                                : Progressive
  34. Bits/(Pixel*Frame)                       : 0.194
  35. Stream size                              : 6.73 GiB (73%)
  36. Title                                    : MPEG-4 [email protected] Profile L4.1, 24 fps @ 7200 kbps
  37. Writing library                          : x264 core 157 r2969 d4099dd
  38. Encoding settings                        : cabac=1 / ref=5 / deblock=1:-3:-3 / analyse=0x3:0x133 / me=umh / subme=11 / psy=1 / psy_rd=1.00:0.00 / mixed_ref=1 / me_range=32 / chroma_me=1 / trellis=2 / 8x8dct=1 / cqm=0 / deadzone=21,11 / fast_pskip=0 / chroma_qp_offset=-2 / threads=25 / lookahead_threads=2 / sliced_threads=0 / nr=0 / decimate=0 / interlaced=0 / NTM4NzU= / bluray_compat=0 / constrained_intra=0 / bframes=6 / b_pyramid=2 / b_adapt=2 / b_bias=0 / direct=3 / weightb=1 / open_gop=0 / weightp=2 / keyint=240 / keyint_min=24 / NTM4NzU=uuDQuD2mJt9fsCf / scenecut=40 / intra_refresh=0 / rc_lookahead=60 / rc=2pass / mbtree=1 / bitrate=7200 / ratetol=1.0 / qcomp=0.60 / qpmin=0 / qpmax=69 / qpstep=4 / cplxblur=20.0 / qblur=0.5 / vbv_maxrate=45000 / vbv_bufsize=45000 / nal_hrd=none / filler=0 / NTM4NzU=LmsMAP37EqsCpk / ip_ratio=1.40 / aq=1:0.60
  39. Language                                 : English
  40. Default                                  : Yes
  41. Forced                                   : No
  42. Audio #1
  43. ID                                       : 2
  44. Format                                   : MLP FBA
  45. Format/Info                              : Meridian Lossless Packing FBA
  46. Commercial name                          : Dolby TrueHD
  47. Codec ID                                 : A_TRUEHD
  48. Duration                                 : 2 h 13 min
  49. Bit rate mode                            : Variable
  50. Bit rate                                 : 1 853 kb/s
  51. Maximum bit rate                         : 2 670 kb/s
  52. Channel(s)                               : 6 channels
  53. Channel layout                           : L R C LFE Ls Rs
  54. Sampling rate                            : 96.0 kHz
  55. Frame rate                               : 1 200.000 FPS (80 SPF)
  56. Compression mode                         : Lossless
  57. Stream size                              : 1.73 GiB (19%)
  58. Title                                    : Mandarin Dolby TrueHD 5.1 @ 1853 kbps  国语
  59. Language                                 : Chinese
  60. Default                                  : Yes
  61. Forced                                   : No
  62. Audio #2
  63. ID                                       : 3
  64. Format                                   : AC-3
  65. Format/Info                              : Audio Coding 3
  66. Commercial name                          : Dolby Digital
  67. Codec ID                                 : A_AC3
  68. Duration                                 : 2 h 13 min
  69. Bit rate mode                            : Constant
  70. Bit rate                                 : 640 kb/s
  71. Channel(s)                               : 6 channels
  72. Channel layout                           : L R C LFE Ls Rs
  73. Sampling rate                            : 48.0 kHz
  74. Frame rate                               : 31.250 FPS (1536 SPF)
  75. Compression mode                         : Lossy
  76. Stream size                              : 613 MiB (7%)
  77. Title                                    : Mandarin Dolby Digital Audio 5.1 @ 640 kbps  国语
  78. Language                                 : Chinese
  79. Service kind                             : Complete Main
  80. Default                                  : No
  81. Forced                                   : No
  82. Text #1
  83. ID                                       : 4
  84. Format                                   : PGS
  85. Codec ID                                 : S_HDMV/PGS
  86. Codec ID/Info                            : Picture based subtitle format used on BDs/HD-DVDs
  87. Duration                                 : 2 h 5 min
  88. Bit rate                                 : 20.4 kb/s
  89. Count of elements                        : 2183
  90. Stream size                              : 18.4 MiB (0%)
  91. Title                                    : Chs/SUP  原盘繁体
  92. Language                                 : Chinese
  93. Default                                  : Yes
  94. Forced                                   : No
  95. Text #2
  96. ID                                       : 5
  97. Format                                   : PGS
  98. Codec ID                                 : S_HDMV/PGS
  99. Codec ID/Info                            : Picture based subtitle format used on BDs/HD-DVDs
  100. Duration                                 : 2 h 6 min
  101. Bit rate                                 : 25.8 kb/s
  102. Count of elements                        : 2228
  103. Stream size                              : 23.4 MiB (0%)
  104. Title                                    : Eng/SUP
  105. Language                                 : English
  106. Default                                  : No
  107. Forced                                   : No
  108. Menu
  109. 00:00:00.000                             : en:00:00:00.000
  110. 00:11:10.042                             : en:00:11:10.042
  111. 00:22:52.458                             : en:00:22:52.458
  112. 00:32:44.458                             : en:00:32:44.458
  113. 00:42:22.667                             : en:00:42:22.667
  114. 00:55:35.750                             : en:00:55:35.750
  115. 01:07:03.667                             : en:01:07:03.667
  116. 01:16:16.917                             : en:01:16:16.917
  117. 01:29:49.125                             : en:01:29:49.125
  118. 01:38:53.583                             : en:01:38:53.583
  119. 01:55:53.292                             : en:01:55:53.292
  120. 02:07:36.625                             : en:02:07:36.625
复制代码

















保举请利用qBittorrent,utorrent,transmission等标准BT软件下载!以获得最快速度。奉求保种!





回复

使用道具 举报

懒得打字嘛,点击右侧快捷回复 【右侧内容,后台自定义】
您需要登录后才可以回帖 登录 | 立即加入

本版积分规则

Archiver|小黑屋| 蓝光电影网 |网站地图

Copyright © 2021 Comsenz Inc. Powered by 蓝光电影网

蓝光电影网

本站内容由用户自主分享和转载自互联网,转载目的在于传递更多信息,并不代表本网赞同其观点和对其真实性负责。

如有侵权、违反国家法律政策行为,请联系我们,我们会第一时间及时清除和处理!

举报反馈邮箱:[email protected]

快速回复 返回顶部 返回列表