找回密码

蓝光电影网

查看: 35|回复: 0

[剧情] 黑水[中英字幕].Dark.Waters.2019.BluRay.1080p.x265.10bit-MiniHD 6.63GB

[复制链接]
蓝光币
7
发表于 2022-7-27 02:16:08 | 显示全部楼层 |阅读模式


◎标  题 黑水
◎译  名 追击黑水真相(港) / 黑水风暴(台) / 黑暗水域 / 空转 / 练习 / Dry Run / The Lawyer Who Became DuPont's Worst Nightmare
◎片  名 Dark Waters
◎年  代 2019
◎产  地 美国
◎类  别 剧情
◎语  言 英语 / 韩语
◎上映日期 2019-11-22(美国点映) / 2019-12-06(美国)
◎IMDb评分 7.6/10 (76348人评价)
◎IMDb链接 https://www.imdb.com/title/tt9071322/
◎豆瓣评分 8.6/10 (111675人评价)
◎豆瓣链接 https://movie.douban.com/subject/30331959/
◎片  长 126分钟
◎导  演 托德·海因斯 Todd Haynes
◎编  剧 纳撒尼尔·里奇 Nathaniel Rich
       马里奥·科雷亚 Mario Correa
       马修·迈克尔·卡纳汉 Matthew Michael Carnahan
◎演  员 马克·鲁弗洛 Mark Ruffalo
       安妮·海瑟薇 Anne Hathaway
       蒂姆·罗宾斯 Tim Robbins
       比尔·坎普 Bill Camp
       维克多·加博 Victor Garber
       比尔·普尔曼 Bill Pullman
       梅尔·温宁汉姆 Mare Winningham
       威廉·杰克森·哈珀 William Jackson Harper
       路易莎·克劳瑟 Louisa Krause
       凯文·克劳利 Kevin Crowley
       丹尼尔·R·希尔 Daniel R. Hill
       王明 Ming Wang
       西尼·迈尔斯 Sydney Miles
       马克·霍克尔 Marc Hockl
       考特尼·德科斯基 Courtney DeCosky
       斯嘉丽·希克斯 Scarlett Hicks
       布莱恩·加拉格尔 Brian Gallagher
       约翰·纽伯格 John Newberg
       莱曼·陈 Lyman Chen
       丹妮丝·达·维拉 Denise Dal Vera
       杰弗里·格罗弗 Jeffrey Grover
       泰里·克拉克 Teri Clark
       杰夫·福尔克 Geoff Falk
       温·赖克特 Wynn Reichert
       乔恩·奥斯贝克 Jon Osbeck
       理查德·杜恩 Richard Doone
       迈克尔·海尼 Michael Haney
       大卫·皮廷格 David Pittinger
       巴基·贝利 Bucky Bailey
       罗伯·比洛特 Rob Bilott
◎标  签 实在事务改编 / 美国 / 环保 / 社会 / 净化 / 法令 / 剧情 / 人性
◎简  介
    基于Nathaniel Rich在《纽约时报》上颁发的文章《The Lawyer Who Became DuPont’s Worst Nightmare》,围绕罗伯特·比洛特展开,他担任辩解律师长达8年之久,他对化工巨头杜邦公司提起了情况诉讼,这场讼事揭穿了几十年来杜邦公司化学净化的历史。
  1. ##### MediaInfo ######
  2. General
  3. Unique ID                                : 297378676151966327411869537861103937099 (0xDFB90CBA9A47F31517C8A3C05BC6664B)
  4. Complete name                            : Dark.Waters.2019.BluRay.1080p.x265.10bit-MiniHD.mkv
  5. Format                                   : Matroska
  6. Format version                           : Version 4
  7. File size                                : 6.63 GiB
  8. Duration                                 : 2 h 7 min
  9. Overall bit rate                         : 7 469 kb/s
  10. Movie name                               : 黑水.Dark.Waters.2019.BluRay.1080p.x265.10bit.MNHD-FRDS
  11. Encoded date                             : UTC 2021-03-31 08:54:00
  12. Writing application                      : mkvmerge v55.0.0 ('Waiting For Space') 64-bit
  13. Writing library                          : libebml v1.4.2 + libmatroska v1.6.4
  14. Video
  15. ID                                       : 1
  16. Format                                   : HEVC
  17. Format/Info                              : High Efficiency Video Coding
  18. Format profile                           : Main [email protected]@Main
  19. Codec ID                                 : V_MPEGH/ISO/HEVC
  20. Duration                                 : 2 h 7 min
  21. Bit rate                                 : 6 681 kb/s
  22. Width                                    : 1 920 pixels
  23. Height                                   : 804 pixels
  24. Display aspect ratio                     : 2.40:1
  25. Frame rate mode                          : Constant
  26. Frame rate                               : 23.976 (24000/1001/53875) FPS
  27. Color space                              : YUV
  28. Chroma subsampling                       : 4:2:0
  29. Bit depth                                : 10 bits
  30. Bits/(Pixel*Frame)                       : 0.181
  31. Stream size                              : 5.93 GiB (89%)
  32. Writing library                          : x265 3.4+13-g729a838d3+38:[Windows][GCC 10.2.0][64 bit] Asuna 10bit+8bit+12bit
  33. Encoding settings                        : rc=crf / crf=19.0000 / qcomp=0.70 / qpstep=4 / stats-write=0 / stats-read=0 / no-lossless / no-cu-lossless / aq-mode=2 / aq-strength=0.80 / cbqpoffs=-2 / crqpoffs=-2 / ipratio=1.40 / pbratio=1.30 / psy-rd=0.00 / psy-rdoq=5.00 / deblock=-1:-1 / ref=5 / limit-refs=2 / limit-modes / bframes=8 / b-adapt=2 / bframe-bias=0 / b-pyramid / b-intra / weightp / weightb / min-keyint=1 / max-keyint=360 / rc-lookahead=60 / gop-lookahead=0 / NTM4NzU=uuDQuD2mJt9fsCf / scenecut=40 / hist-scenecut=0 / radl=0 / max-cu-size=32 / min-cu-size=8 / me=3 / subme=5 / merange=25 / rdoq-level=1 / rd=4 / rdpenalty=1 / dynamic-rd=0.00 / no-rd-refine / ----- / cutree / no-sao / rect / no-amp / no-open-gop / wpp / no-pmode / no-pme / no-psnr / no-ssim / nr-intra=0 / nr-inter=0 / no-constrained-intra / no-strong-intra-smoothing / max-tu-size=16 / tu-inter-depth=2 / tu-intra-depth=2 / limit-tu=0 / qg-size=16 / qpmax=69 / qpmin=0 / ----- / cpuid=538751111039 / frame-threads=3 / numa-pools=8 / log-level=2 / input-csp=1 / input-res=1920x804 / interlace=0 / level-idc=0 / high-tier=1 / uhd-bd=0 / no-allow-non-conformance / no-repeat-headers / no-aud / no-hrd / info / hash=0 / no-temporal-layers / lookahead-slices=0 / no-splice / no-intra-refresh / ssim-rd / signhide / no-tskip / max-merge=5 / temporal-mvp / no-frame-dup / no-hme / no-analyze-src-pics / no-sao-non-deblock / selective-sao=0 / no-early-skip / rskip / no-fast-intra / no-tskip-fast / no-splitrd-skip / zone-count=0 / no-strict-cbr / no-rc-grain / no-const-vbv / sar=1 / overscan=0 / videoformat=5 / range=0 / colorprim=1 / transfer=2 / colormatrix=2 / chromaloc=0 / display-window=0 / cll=0,0 / min-luma=0 / max-luma=1023 / log2-max-poc-lsb=8 / vui-timing-info / vui-hrd-info / slices=1 / no-opt-qp-pps / no-opt-ref-list-length-pps / no-multi-pass-opt-rps / scenecut-bias=0.05 / hist-threshold=0.01 / no-opt-cu-delta-qp / no-aq-motion / no-hdr10 / no-hdr10-opt / no-dhdr10-opt / no-idr-recovery-sei / analysis-reuse-level=0 / analysis-save-reuse-level=0 / analysis-load-reuse-level=0 / scale-factor=0 / refine-intra=0 / refine-inter=0 / refine-mv=1 / refine-ctu-distortion=0 / no-limit-sao / ctu-info=0 / no-lowpass-dct / refine-analysis-type=0 / copy-pic=1 / max-ausize-factor=1.0 / no-dynamic-refine / no-single-sei / no-hevc-aq / no-svt / no-field / qp-adaptation-range=1.00 / no-scenecut-aware-qpconformance-window-offsets / right=0 / bottom=0 / NTM4NzU= / decoder-max-rate=0
  34. Default                                  : Yes
  35. Forced                                   : No
  36. Color range                              : Limited
  37. Color primaries                          : BT.709
  38. Audio
  39. ID                                       : 2
  40. Format                                   : AC-3
  41. Format/Info                              : Audio Coding 3
  42. Commercial name                          : Dolby Digital
  43. Codec ID                                 : A_AC3
  44. Duration                                 : 2 h 7 min
  45. Bit rate mode                            : Constant
  46. Bit rate                                 : 640 kb/s
  47. Channel(s)                               : 6 channels
  48. Channel layout                           : L R C LFE Ls Rs
  49. Sampling rate                            : 48.0 kHz
  50. Frame rate                               : 31.250 FPS (1536 SPF)
  51. Compression mode                         : Lossy
  52. Stream size                              : 582 MiB (9%)
  53. Language                                 : English
  54. Service kind                             : Complete Main
  55. Default                                  : Yes
  56. Forced                                   : No
  57. Text #1
  58. ID                                       : 3
  59. Format                                   : PGS
  60. Muxing mode                              : zlib
  61. Codec ID                                 : S_HDMV/PGS
  62. Codec ID/Info                            : Picture based subtitle format used on BDs/HD-DVDs
  63. Language                                 : Chinese
  64. Default                                  : Yes
  65. Forced                                   : Yes
  66. Text #2
  67. ID                                       : 4
  68. Format                                   : PGS
  69. Muxing mode                              : zlib
  70. Codec ID                                 : S_HDMV/PGS
  71. Codec ID/Info                            : Picture based subtitle format used on BDs/HD-DVDs
  72. Language                                 : Chinese
  73. Default                                  : No
  74. Forced                                   : No
  75. Text #3
  76. ID                                       : 5
  77. Format                                   : PGS
  78. Muxing mode                              : zlib
  79. Codec ID                                 : S_HDMV/PGS
  80. Codec ID/Info                            : Picture based subtitle format used on BDs/HD-DVDs
  81. Language                                 : English
  82. Default                                  : No
  83. Forced                                   : No
  84. Text #4
  85. ID                                       : 6
  86. Format                                   : PGS
  87. Muxing mode                              : zlib
  88. Codec ID                                 : S_HDMV/PGS
  89. Codec ID/Info                            : Picture based subtitle format used on BDs/HD-DVDs
  90. Title                                    : English-PGS
  91. Language                                 : English
  92. Default                                  : No
  93. Forced                                   : No
  94. Menu
  95. 00:00:00.000                             : en:Chapter 01
  96. 00:10:08.190                             : en:Chapter 02
  97. 00:18:18.430                             : en:Chapter 03
  98. 00:28:20.448                             : en:Chapter 04
  99. 00:36:48.956                             : en:Chapter 05
  100. 00:44:45.891                             : en:Chapter 06
  101. 00:50:17.055                             : en:Chapter 07
  102. 01:04:17.395                             : en:Chapter 08
  103. 01:08:46.080                             : en:Chapter 09
  104. 01:17:23.639                             : en:Chapter 10
  105. 01:23:51.151                             : en:Chapter 11
  106. 01:25:31.668                             : en:Chapter 12
  107. 01:31:40.995                             : en:Chapter 13
  108. 01:36:14.977                             : en:Chapter 14
  109. 01:38:55.971                             : en:Chapter 15
  110. 01:42:27.391                             : en:Chapter 16
  111. 01:45:11.179                             : en:Chapter 17
  112. 01:50:32.083                             : en:Chapter 18
  113. 02:00:16.584                             : en:Chapter 19
  114. 02:02:02.565                             : en:Chapter 20
复制代码



保举请利用qBittorrent,utorrent,transmission等标准BT软件下载!以获得最快速度。奉求保种!





回复

使用道具 举报

懒得打字嘛,点击右侧快捷回复 【右侧内容,后台自定义】
您需要登录后才可以回帖 登录 | 立即加入

本版积分规则

Archiver|小黑屋| 蓝光电影网 |网站地图

Copyright © 2021 Comsenz Inc. Powered by 蓝光电影网

蓝光电影网

本站内容由用户自主分享和转载自互联网,转载目的在于传递更多信息,并不代表本网赞同其观点和对其真实性负责。

如有侵权、违反国家法律政策行为,请联系我们,我们会第一时间及时清除和处理!

举报反馈邮箱:[email protected]

快速回复 返回顶部 返回列表