找回密码

蓝光电影网

查看: 39|回复: 0

[剧情] 粉红色潜艇[简繁英字幕].Operation.Petticoat.1959.BluRay.1080p.DTS-HD.MA.2.0.x265.10bit-ALT 10.61GB

[复制链接]
蓝光币
7
发表于 2022-7-27 02:16:07 | 显示全部楼层 |阅读模式


◎标  题 粉红色潜艇
◎片  名 Operation Petticoat
◎年  代 1959
◎产  地 美国
◎类  别 笑剧 / 恋爱 / 战争
◎语  言 英语
◎上映日期 1959-12-05
◎IMDb评分 7.3/10 (13846人评价)
◎IMDb链接 https://www.imdb.com/title/tt0053143/
◎豆瓣评分 8.0/10 (324人评价)
◎豆瓣链接 https://movie.douban.com/subject/1303403/
◎片  长 124 分钟
◎导  演 布莱克·爱德华兹 Blake Edwards
◎编  剧 斯坦利·沙皮罗 Stanley Shapiro
       莫里斯·里奇林 Maurice Richlin
       保罗·金 Paul King
       约瑟夫·斯通 Joseph Stone
◎演  员 加里·格兰特 Cary Grant
       托尼·柯蒂斯 Tony Curtis
       琼·欧布伦 Joan O'Brien
       迪娜·梅瑞尔 Dina Merrill
       吉恩·埃文斯 Gene Evans
       Dick Sargent Dick Sargent
       维吉尼亚·格雷格 Virginia Gregg
       罗伯特·F·西蒙 Robert F. Simon
       罗伯特·吉斯特 Robert Gist
       加文·麦克劳德 Gavin MacLeod
       乔治·邓恩 George Dunn
       迪克·克罗基特 Dick Crockett
       马德琳·鲁 Madlyn Rhue
       马里昂·罗斯 Marion Ross
       Clarence Lung Clarence Lung
       弗兰基·达罗 Frankie Darro
       罗伯特·F.霍伊 Robert F. Hoy
       Nicky Blair Nicky Blair
       John W. Morley John W. Morley
       阿瑟·奥康纳 Arthur O'Connell
       哈尔·贝勒 Hal Baylor
       威廉·布莱特 William Bryant
       Dick Callinan Dick Callinan
       Malcolm Cassell Malcolm Cassell
       戴尔·卡明斯 Dale Cummings
       弗朗西斯·德塞尔斯 Francis De Sales
       Vince Deadrick Sr. Vince Deadrick Sr.
       Alan Dexter Alan Dexter
       柯克·道格拉斯 Kirk Douglas
       保罗·费斯 Paul Frees
       Preston Hanson Preston Hanson
       Harry Harvey Jr. Harry Harvey Jr.
       James Lanphier James Lanphier
       Nelson Leigh Nelson Leigh
       里昂·朗塔克 Leon Lontoc
       John James Russell John James Russell
       Nino Tempo Nino Tempo
       艾伦·斯科特 Alan Scott
       Robert Arthur Robert Arthur
       亨利·曼西尼 Henry Mancini
       大卫·罗丝 David Rose
       拉塞尔·哈伦 Russell Harlan
       泰德·J·肯特 Ted J. Kent
       亚历山大·高利思 Alexander Golitzen
       罗伯特·埃梅特·史姑娘 Robert Emmet Smith
       奥利弗·埃默特 Oliver Emert
       罗素·A·盖斯曼 Russell A. Gausman
       比尔·托马斯 Bill Thomas
       拉里·热尔曼 Larry Germain
       百德·沃斯塔梅尔 Bud Westmore
◎标  签 笑剧 / 二战 / 美国 / 战争 / 美国电影 / 潜艇 / 加里·格兰特 / CaryGrant
◎简  介
  美国水兵海之虎号潜艇行将退役,水兵少将雪曼早早地来到潜艇上,翻看航海日志。看着自己昔时的记录,昔日情形仍历历在目。将军思绪万千,浮想联翩……. 承平洋战争早期,美国水兵在东南亚步步退守。海之虎号潜艇在口岸几近被日军飞机炸沉,雪曼艇长(卡里·格兰特饰)的使命是在两周之内完成平常需要两个月才能做完的事——把完全落空飞行和战役才能的海之虎号修睦并退却,但时势艰难,海之虎号连最最少的补给都很难弄到。水兵上尉霍顿前来报到,这人不管穿着打扮或言行举止,都象个实足的花花公子,而且有关潜艇专业的常识他一概不懂,雪曼艇长感觉自己又多了一重麻烦。 霍顿上尉自动请缨之下,当上了海之虎号的军需官。谁知这正是最能发挥他长才的职位。他妥为运筹,使海之虎号的军需补给显现一派欣欣向荣的气象,很快就起锚起航了,而基地批示官则忙着清查搬空基地仓库及他本人办公室的窃贼。 霍顿...
  1. ##### MediaInfo ######
  2. General
  3. Unique ID                                : 127845493067793221383310385363592395099 (0x602E25763CF90CD525B101884C23B95B)
  4. Complete name                            : Operation.Petticoat.1959.BluRay.1080p.DTS-HD.MA.2.0.x265.10bit-ALT.mkv
  5. Format                                   : Matroska
  6. Format version                           : Version 4
  7. File size                                : 10.6 GiB
  8. Duration                                 : 2 h 0 min
  9. Overall bit rate mode                    : Variable
  10. Overall bit rate                         : 12.6 Mb/s
  11. Encoded date                             : UTC 2022-04-19 13:40:00
  12. Writing application                      : mkvmerge v49.0.0 ('Sick Of Losing Soulmates') 64-bit
  13. Writing library                          : libebml v1.4.0 + libmatroska v1.6.1
  14. Video
  15. ID                                       : 1
  16. Format                                   : HEVC
  17. Format/Info                              : High Efficiency Video Coding
  18. Format profile                           : Main [email protected]@High
  19. Codec ID                                 : V_MPEGH/ISO/HEVC
  20. Duration                                 : 2 h 0 min
  21. Bit rate                                 : 10.5 Mb/s
  22. Width                                    : 1 920 pixels
  23. Height                                   : 1 038 pixels
  24. Display aspect ratio                     : 1.85:1
  25. Frame rate mode                          : Constant
  26. Frame rate                               : 23.976 (24000/1001/53875) FPS
  27. Color space                              : YUV
  28. Chroma subsampling                       : 4:2:0
  29. Bit depth                                : 10 bits
  30. Bits/(Pixel*Frame)                       : 0.219
  31. Stream size                              : 8.81 GiB (83%)
  32. Title                                    : HEVC, [email protected]@High, 24/1.001 fps @ 10480 kbps
  33. Writing library                          : x265 3.5+36-1f2c8da77:[Windows][GCC 11.2.0][64 bit] 10bit
  34. Encoding settings                        : cpuid=538751049071 / frame-threads=3 / numa-pools=8 / wpp / pmode / pme / no-psnr / no-ssim / log-level=2 / input-csp=1 / input-res=1920x1038 / interlace=0 / total-frames=173114 / level-idc=51 / high-tier=1 / uhd-bd=0 / ref=5 / no-allow-non-conformance / no-repeat-headers / annexb / no-aud / no-eob / no-eos / no-hrd / info / hash=0 / no-temporal-layers / open-gop / min-keyint=24 / keyint=240 / gop-lookahead=0 / bframes=6 / b-adapt=2 / b-pyramid / bframe-bias=0 / rc-lookahead=40 / lookahead-slices=0 / NTM4NzU=uuDQuD2mJt9fsCf / scenecut=40 / no-hist-scenecut / radl=0 / no-splice / no-intra-refresh / ctu=32 / min-cu-size=8 / no-rect / no-amp / max-tu-size=32 / tu-inter-depth=3 / tu-intra-depth=3 / limit-tu=4 / rdoq-level=2 / dynamic-rd=0.00 / no-ssim-rd / signhide / no-tskip / nr-intra=0 / nr-inter=0 / no-constrained-intra / no-strong-intra-smoothing / max-merge=4 / limit-refs=1 / limit-modes / me=3 / subme=4 / merange=25 / temporal-mvp / no-frame-dup / no-hme / weightp / weightb / no-analyze-src-pics / deblock=-3:-3 / no-sao / no-sao-non-deblock / rd=6 / selective-sao=0 / no-early-skip / rskip / no-fast-intra / no-tskip-fast / no-cu-lossless / b-intra / no-splitrd-skip / rdpenalty=0 / psy-rd=2.00 / psy-rdoq=1.00 / no-rd-refine / no-lossless / cbqpoffs=0 / crqpoffs=0 / rc=crf / crf=21.5 / qcomp=0.65 / qpstep=4 / stats-write=0 / stats-read=0 / vbv-maxrate=80000 / vbv-bufsize=80000 / vbv-init=0.9 / min-vbv-fullness=50.0 / max-vbv-fullness=80.0 / crf-max=0.0 / crf-min=0.0 / ipratio=1.40 / pbratio=1.30 / aq-mode=2 / aq-strength=0.85 / cutree / zone-count=0 / no-strict-cbr / qg-size=32 / no-rc-grain / qpmax=69 / qpmin=0 / no-const-vbv / sar=1 / overscan=0 / videoformat=5 / range=0 / colorprim=1 / transfer=1 / colormatrix=1 / chromaloc=0 / display-window=0 / cll=0,0 / min-luma=0 / max-luma=1023 / log2-max-poc-lsb=8 / vui-timing-info / vui-hrd-info / slices=1 / no-opt-qp-pps / no-opt-ref-list-length-pps / no-multi-pass-opt-rps / scenecut-bias=0.05 / hist-threshold=0.03 / no-opt-cu-delta-qp / no-aq-motion / no-hdr10 / no-hdr10-opt / no-dhdr10-opt / no-idr-recovery-sei / analysis-reuse-level=0 / analysis-save-reuse-level=0 / analysis-load-reuse-level=0 / scale-factor=0 / refine-intra=0 / refine-inter=0 / refine-mv=1 / refine-ctu-distortion=0 / no-limit-sao / ctu-info=0 / no-lowpass-dct / refine-analysis-type=0 / copy-pic=1 / max-ausize-factor=1.0 / no-dynamic-refine / no-single-sei / no-hevc-aq / no-svt / no-field / qp-adaptation-range=1.00 / scenecut-aware-qp=0conformance-window-offsets / right=0 / bottom=0 / NTM4NzU= / decoder-max-rate=0 / no-vbv-live-multi-pass
  35. Language                                 : English
  36. Default                                  : Yes
  37. Forced                                   : No
  38. Color range                              : Limited
  39. Color primaries                          : BT.709
  40. Transfer characteristics                 : BT.709
  41. Matrix coefficients                      : BT.709
  42. Audio #1
  43. ID                                       : 2
  44. Format                                   : DTS XLL
  45. Format/Info                              : Digital Theater Systems
  46. Commercial name                          : DTS-HD Master Audio
  47. Codec ID                                 : A_DTS
  48. Duration                                 : 2 h 0 min
  49. Bit rate mode                            : Variable
  50. Bit rate                                 : 1 790 kb/s
  51. Channel(s)                               : 2 channels
  52. Channel layout                           : L R
  53. Sampling rate                            : 48.0 kHz
  54. Frame rate                               : 93.750 FPS (512 SPF)
  55. Bit depth                                : 24 bits
  56. Compression mode                         : Lossless
  57. Stream size                              : 1.51 GiB (14%)
  58. Title                                    : English DTS-HD Master Audio 2.0 @ 1791 kbps
  59. Language                                 : English
  60. Default                                  : Yes
  61. Forced                                   : No
  62. Audio #2
  63. ID                                       : 3
  64. Format                                   : AC-3
  65. Format/Info                              : Audio Coding 3
  66. Commercial name                          : Dolby Digital
  67. Codec ID                                 : A_AC3
  68. Duration                                 : 2 h 0 min
  69. Bit rate mode                            : Constant
  70. Bit rate                                 : 192 kb/s
  71. Channel(s)                               : 2 channels
  72. Channel layout                           : L R
  73. Sampling rate                            : 48.0 kHz
  74. Frame rate                               : 31.250 FPS (1536 SPF)
  75. Compression mode                         : Lossy
  76. Stream size                              : 165 MiB (2%)
  77. Title                                    : English Dolby Digital Audio 2.0 @ 192 kbps  Commentary
  78. Language                                 : English
  79. Service kind                             : Complete Main
  80. Default                                  : No
  81. Forced                                   : No
  82. Text #1
  83. ID                                       : 4
  84. Format                                   : PGS
  85. Codec ID                                 : S_HDMV/PGS
  86. Codec ID/Info                            : Picture based subtitle format used on BDs/HD-DVDs
  87. Duration                                 : 1 h 59 min
  88. Bit rate                                 : 68.7 kb/s
  89. Count of elements                        : 4996
  90. Stream size                              : 58.8 MiB (1%)
  91. Title                                    : Eng/SUP
  92. Language                                 : English
  93. Default                                  : No
  94. Forced                                   : No
  95. Text #2
  96. ID                                       : 5
  97. Format                                   : PGS
  98. Codec ID                                 : S_HDMV/PGS
  99. Codec ID/Info                            : Picture based subtitle format used on BDs/HD-DVDs
  100. Duration                                 : 1 h 59 min
  101. Bit rate                                 : 44.8 kb/s
  102. Count of elements                        : 2846
  103. Stream size                              : 38.3 MiB (0%)
  104. Title                                    : Chs/SUP  简体
  105. Language                                 : Chinese
  106. Default                                  : Yes
  107. Forced                                   : No
  108. Text #3
  109. ID                                       : 6
  110. Format                                   : PGS
  111. Codec ID                                 : S_HDMV/PGS
  112. Codec ID/Info                            : Picture based subtitle format used on BDs/HD-DVDs
  113. Duration                                 : 1 h 59 min
  114. Bit rate                                 : 46.5 kb/s
  115. Count of elements                        : 2846
  116. Stream size                              : 39.8 MiB (0%)
  117. Title                                    : Cht/SUP  繁体
  118. Language                                 : Chinese
  119. Default                                  : No
  120. Forced                                   : No
复制代码

















保举请利用qBittorrent,utorrent,transmission等标准BT软件下载!以获得最快速度。奉求保种!





回复

使用道具 举报

懒得打字嘛,点击右侧快捷回复 【右侧内容,后台自定义】
您需要登录后才可以回帖 登录 | 立即加入

本版积分规则

Archiver|小黑屋| 蓝光电影网 |网站地图

Copyright © 2021 Comsenz Inc. Powered by 蓝光电影网

蓝光电影网

本站内容由用户自主分享和转载自互联网,转载目的在于传递更多信息,并不代表本网赞同其观点和对其真实性负责。

如有侵权、违反国家法律政策行为,请联系我们,我们会第一时间及时清除和处理!

举报反馈邮箱:[email protected]

快速回复 返回顶部 返回列表