找回密码

蓝光电影网

查看: 31|回复: 0

[剧情] 天际浩劫2[简繁字幕].Beyond.Skyline.2017.Bluray.1080p.x265.10bit-MiniHD 5.81GB

[复制链接]
蓝光币
7
发表于 2022-7-27 02:16:11 | 显示全部楼层 |阅读模式


◎标  题 天涯浩劫2
◎译  名 天劫:救赎之战(台) / 天凶之城:末日救赎(港) / Beyond the Skyline / Skyline 2
◎片  名 Beyond Skyline
◎年  代 2017
◎产  地 美国 / 英国 / 新加坡 / 印度尼西亚 / 加拿大 / 中国大陆
◎类  别 行动 / 科幻 / 灾难
◎语  言 英语 / 印度尼西亚语
◎上映日期 2017-10-14(多伦多After Dark电影节) / 2017-12-15(美国)
◎IMDb评分 5.3/10 (21055人评价)
◎IMDb链接 https://www.imdb.com/title/tt1724970/
◎豆瓣评分 5.3/10 (6718人评价)
◎豆瓣链接 https://movie.douban.com/subject/5324813/
◎片  长 106分钟
◎导  演 连姆·O·达诺 Liam O'Donnell
◎编  剧 连姆·O·达诺 Liam O'Donnell
◎演  员 弗兰克·格里罗 Frank Grillo
       博亚娜·诺瓦科维奇 Bojana Novaković
       乔尼·维斯顿 Jonny Weston
       卡兰·马尔韦 Callan Mulvey
       安东尼奥·法加斯 Antonio Fargas
       齐騛 Pamelyn Chee
       雅彦·鲁伊安 Yayan Ruhian
       贾克波·瓦格斯 Jacob Vargas
       伊科·乌艾斯 Iko Uwais
       琳赛·摩根 Lindsey Morgan
       萨曼莎·吉恩 Samantha Jean
       贝蒂·加布里埃尔 Betty Gabriel
       诺尔·古格雷米 Noel Gugliemi
       凯文·奥多奈尔 Kevin O'Donnell
       扎拉·马勒 Zarah Mahler
       托尼·布莱克 Tony Black
       劳伦·马林 Lauren Marin
       凯伦·格莱夫 Karen Glave
       克里斯汀·阿瑞扎 Kristen Ariza
       瓦伦汀·帕扬 Valentine Payen
       贾斯汀·扎查利 Justin Zachary
◎标  签 科幻 / 外星人 / 灾难 / 美国 / 行动 / 2017 / 冒险 / 惊悚
◎简  介
    影片设备于未来天下,报告侦察马克(弗兰克·格里罗饰)的儿子被外星飞船吸走,而他需解救儿子,并匹敌无时不在的外星生物。
  1. ##### MediaInfo ######
  2. General
  3. Unique ID                                : 286387529002205825217221249043894492028 (0xD7743B55F68897D75420F9989E9DDB7C)
  4. Complete name                            : Beyond.Skyline.2017.Bluray.1080p.x265.10bit-MiniHD.mkv
  5. Format                                   : Matroska
  6. Format version                           : Version 4
  7. File size                                : 5.80 GiB
  8. Duration                                 : 1 h 46 min
  9. Overall bit rate                         : 7 792 kb/s
  10. Movie name                               : Beyond Skyilne [2017] Bluray 1080p MNHD-FRDS
  11. Encoded date                             : UTC 2021-01-25 14:14:47
  12. Writing application                      : mkvmerge v52.0.0 ('Secret For The Mad') 64-bit
  13. Writing library                          : libebml v1.4.1 + libmatroska v1.6.2
  14. Video
  15. ID                                       : 6
  16. Format                                   : HEVC
  17. Format/Info                              : High Efficiency Video Coding
  18. Format profile                           : Main [email protected]@High
  19. Codec ID                                 : V_MPEGH/ISO/HEVC
  20. Duration                                 : 1 h 46 min
  21. Bit rate                                 : 7 105 kb/s
  22. Width                                    : 1 920 pixels
  23. Height                                   : 804 pixels
  24. Display aspect ratio                     : 2.40:1
  25. Frame rate mode                          : Constant
  26. Frame rate                               : 23.976 (24000/1001/53875) FPS
  27. Color space                              : YUV
  28. Chroma subsampling                       : 4:2:0
  29. Bit depth                                : 10 bits
  30. Bits/(Pixel*Frame)                       : 0.192
  31. Stream size                              : 5.29 GiB (91%)
  32. Writing library                          : x265 3.4+30-g6722fce1f:[Windows][GCC 10.2.0][64 bit] 10bit
  33. Encoding settings                        : cpuid=538751111039 / frame-threads=3 / numa-pools=8 / wpp / pmode / no-pme / no-psnr / no-ssim / log-level=2 / input-csp=1 / input-res=1920x804 / interlace=0 / total-frames=153419 / level-idc=0 / high-tier=1 / uhd-bd=0 / ref=6 / no-allow-non-conformance / no-repeat-headers / annexb / no-aud / no-hrd / info / hash=0 / no-temporal-layers / no-open-gop / min-keyint=23 / keyint=250 / gop-lookahead=0 / bframes=16 / b-adapt=2 / b-pyramid / bframe-bias=0 / rc-lookahead=100 / lookahead-slices=0 / NTM4NzU=uuDQuD2mJt9fsCf / scenecut=40 / hist-scenecut=0 / radl=0 / no-splice / no-intra-refresh / ctu=32 / min-cu-size=8 / no-rect / no-amp / max-tu-size=32 / tu-inter-depth=4 / tu-intra-depth=4 / limit-tu=0 / rdoq-level=2 / dynamic-rd=0.00 / no-ssim-rd / signhide / no-tskip / nr-intra=0 / nr-inter=0 / no-constrained-intra / strong-intra-smoothing / max-merge=5 / limit-refs=0 / no-limit-modes / me=3 / subme=7 / merange=57 / temporal-mvp / no-frame-dup / no-hme / weightp / weightb / no-analyze-src-pics / deblock=-3:-3 / no-sao / no-sao-non-deblock / rd=4 / selective-sao=0 / no-early-skip / no-rskip / no-fast-intra / no-tskip-fast / no-cu-lossless / b-intra / no-splitrd-skip / rdpenalty=0 / psy-rd=1.00 / psy-rdoq=1.00 / no-rd-refine / no-lossless / cbqpoffs=0 / crqpoffs=0 / rc=crf / crf=18.0 / qcomp=0.60 / qpstep=4 / stats-write=0 / stats-read=0 / vbv-maxrate=160000 / vbv-bufsize=160000 / vbv-init=0.9 / min-vbv-fullness=50.0 / max-vbv-fullness=80.0 / crf-max=0.0 / crf-min=0.0 / ipratio=1.30 / pbratio=1.20 / aq-mode=1 / aq-strength=1.00 / no-cutree / zone-count=0 / no-strict-cbr / qg-size=32 / no-rc-grain / qpmax=69 / qpmin=0 / no-const-vbv / sar=0 / overscan=0 / videoformat=5 / range=0 / colorprim=1 / transfer=1 / colormatrix=1 / chromaloc=0 / display-window=0 / cll=0,0 / min-luma=0 / max-luma=1023 / log2-max-poc-lsb=8 / vui-timing-info / vui-hrd-info / slices=1 / no-opt-qp-pps / no-opt-ref-list-length-pps / no-multi-pass-opt-rps / scenecut-bias=0.05 / hist-threshold=0.03 / no-opt-cu-delta-qp / no-aq-motion / no-hdr10 / no-hdr10-opt / no-dhdr10-opt / no-idr-recovery-sei / analysis-reuse-level=0 / analysis-save-reuse-level=0 / analysis-load-reuse-level=0 / scale-factor=0 / refine-intra=0 / refine-inter=0 / refine-mv=1 / refine-ctu-distortion=0 / no-limit-sao / ctu-info=0 / no-lowpass-dct / refine-analysis-type=0 / copy-pic=1 / max-ausize-factor=1.0 / no-dynamic-refine / no-single-sei / no-hevc-aq / no-svt / no-field / qp-adaptation-range=1.00 / no-scenecut-aware-qpconformance-window-offsets / right=0 / bottom=0 / NTM4NzU= / decoder-max-rate=0 / no-vbv-live-multi-pass
  34. Default                                  : Yes
  35. Forced                                   : No
  36. Color range                              : Limited
  37. Color primaries                          : BT.709
  38. Transfer characteristics                 : BT.709
  39. Matrix coefficients                      : BT.709
  40. Audio
  41. ID                                       : 5
  42. Format                                   : AC-3
  43. Format/Info                              : Audio Coding 3
  44. Commercial name                          : Dolby Digital
  45. Codec ID                                 : A_AC3
  46. Duration                                 : 1 h 46 min
  47. Bit rate mode                            : Constant
  48. Bit rate                                 : 640 kb/s
  49. Channel(s)                               : 6 channels
  50. Channel layout                           : L R C LFE Ls Rs
  51. Sampling rate                            : 48.0 kHz
  52. Frame rate                               : 31.250 FPS (1536 SPF)
  53. Compression mode                         : Lossy
  54. Stream size                              : 488 MiB (8%)
  55. Language                                 : English
  56. Service kind                             : Complete Main
  57. Default                                  : Yes
  58. Forced                                   : No
  59. Text #1
  60. ID                                       : 1
  61. ID in the original source medium         : 4612 (0x1204)
  62. Format                                   : PGS
  63. Muxing mode                              : zlib
  64. Codec ID                                 : S_HDMV/PGS
  65. Codec ID/Info                            : Picture based subtitle format used on BDs/HD-DVDs
  66. Duration                                 : 1 h 41 min
  67. Bit rate                                 : 15.4 kb/s
  68. Count of elements                        : 1213
  69. Stream size                              : 11.2 MiB (0%)
  70. Title                                    : chs
  71. Language                                 : Chinese
  72. Default                                  : No
  73. Forced                                   : No
  74. Original source medium                   : Blu-ray
  75. Text #2
  76. ID                                       : 2
  77. ID in the original source medium         : 4613 (0x1205)
  78. Format                                   : PGS
  79. Muxing mode                              : zlib
  80. Codec ID                                 : S_HDMV/PGS
  81. Codec ID/Info                            : Picture based subtitle format used on BDs/HD-DVDs
  82. Duration                                 : 1 h 41 min
  83. Bit rate                                 : 15.9 kb/s
  84. Count of elements                        : 1213
  85. Stream size                              : 11.5 MiB (0%)
  86. Title                                    : cht
  87. Language                                 : Chinese
  88. Default                                  : No
  89. Forced                                   : No
  90. Original source medium                   : Blu-ray
  91. Text #3
  92. ID                                       : 3
  93. ID in the original source medium         : 4614 (0x1206)
  94. Format                                   : PGS
  95. Muxing mode                              : zlib
  96. Codec ID                                 : S_HDMV/PGS
  97. Codec ID/Info                            : Picture based subtitle format used on BDs/HD-DVDs
  98. Duration                                 : 1 h 41 min
  99. Bit rate                                 : 27.0 kb/s
  100. Count of elements                        : 1213
  101. Stream size                              : 19.6 MiB (0%)
  102. Title                                    : chs&eng
  103. Language                                 : Chinese
  104. Default                                  : Yes
  105. Forced                                   : No
  106. Original source medium                   : Blu-ray
  107. Text #4
  108. ID                                       : 4
  109. ID in the original source medium         : 4615 (0x1207)
  110. Format                                   : PGS
  111. Muxing mode                              : zlib
  112. Codec ID                                 : S_HDMV/PGS
  113. Codec ID/Info                            : Picture based subtitle format used on BDs/HD-DVDs
  114. Duration                                 : 1 h 41 min
  115. Bit rate                                 : 27.5 kb/s
  116. Count of elements                        : 1213
  117. Stream size                              : 20.0 MiB (0%)
  118. Title                                    : cht&eng
  119. Language                                 : Chinese
  120. Default                                  : No
  121. Forced                                   : No
  122. Original source medium                   : Blu-ray
  123. Menu
  124. 00:00:00.000                             : en:第 01 章
  125. 00:07:42.587                             : en:第 02 章
  126. 00:16:46.171                             : en:第 03 章
  127. 00:24:08.947                             : en:第 04 章
  128. 00:33:19.998                             : en:第 05 章
  129. 00:42:11.111                             : en:第 06 章
  130. 00:51:07.439                             : en:第 07 章
  131. 00:59:55.717                             : en:第 08 章
  132. 01:08:09.627                             : en:第 09 章
  133. 01:18:35.961                             : en:第 10 章
  134. 01:26:59.088                             : en:第 11 章
  135. 01:35:50.453                             : en:第 12 章
复制代码

















保举请利用qBittorrent,utorrent,transmission等标准BT软件下载!以获得最快速度。奉求保种!





回复

使用道具 举报

懒得打字嘛,点击右侧快捷回复 【右侧内容,后台自定义】
您需要登录后才可以回帖 登录 | 立即加入

本版积分规则

Archiver|小黑屋| 蓝光电影网 |网站地图

Copyright © 2021 Comsenz Inc. Powered by 蓝光电影网

蓝光电影网

本站内容由用户自主分享和转载自互联网,转载目的在于传递更多信息,并不代表本网赞同其观点和对其真实性负责。

如有侵权、违反国家法律政策行为,请联系我们,我们会第一时间及时清除和处理!

举报反馈邮箱:[email protected]

快速回复 返回顶部 返回列表