找回密码

蓝光电影网

查看: 33|回复: 0

[剧情] 蝙蝠侠:龙之魂[简繁英字幕].Batman.Soul.of.the.Dragon.2021.Bluray.1080p.x265.10bit-MiniHD 4.36GB

[复制链接]
蓝光币
7
发表于 2022-7-27 02:16:12 | 显示全部楼层 |阅读模式


◎标  题 蝙蝠侠:龙之魂
◎译  名 蝙蝠俠:龍的靈魂
◎片  名 Batman: Soul of the Dragon
◎年  代 2021
◎产  地 美国
◎类  别 行动 / 动画 / 冒险
◎语  言 英语
◎上映日期 2021-01-12(美国收集)
◎IMDb评分 6/10 (5611人评价)
◎IMDb链接 https://www.imdb.com/title/tt12885852/
◎豆瓣评分 5.9/10 (1558人评价)
◎豆瓣链接 https://movie.douban.com/subject/35181083/
◎片  长 83分钟
◎导  演 刘山姆 Sam Liu
◎编  剧 杰瑞米·亚当斯 Jeremy Adams
◎演  员 大卫·君图力 David Giuntoli
       马克·达卡斯考斯 Mark Dacascos
       胡凯莉 Kelly Hu
       迈克尔·加·怀特 Michael Jai White
       吴汉章 James Hong
       艾瑞克·鲍扎 Eric Bauza
       郑智麟 Jamie Chung
       克里斯·考克斯 Chris Cox
       罗宾·阿特金·唐斯 Robin Atkin Downes
       格蕾·德丽斯勒 Grey DeLisle
       乔什·基顿 Josh Keaton
       艾丽卡·鲁特雷尔 Erica Luttrell
       帕特里克·赛兹 Patrick Seitz
       刘山姆 Sam Liu
       布鲁斯·提姆 Bruce W. Timm
       萨姆·雷吉斯特 Sam Register
       杰夫·瓦斯特 Jeff Wamester
◎简  介
  上世纪70年月,一位失落的武术教员是他虔诚而聪明但间隔较远的门生(包括蝙蝠侠)寻觅的工具。
  1. ##### MediaInfo ######
  2. General
  3. Unique ID                                : 185956976202826307150476963752881056445 (0x8BE602C945BAA7B19E6C55542DAE6ABD)
  4. Complete name                            : Batman.Soul.of.the.Dragon.2021.Bluray.1080p.x265.10bit-MiniHD.mkv
  5. Format                                   : Matroska
  6. Format version                           : Version 4
  7. File size                                : 4.36 GiB
  8. Duration                                 : 1 h 22 min
  9. Overall bit rate                         : 7 551 kb/s
  10. Movie name                               : Batman Soul of the Dragon [2021] Bluray 1080p MNHD-FRDS
  11. Encoded date                             : UTC 2021-02-02 09:18:30
  12. Writing application                      : mkvmerge v52.0.0 ('Secret For The Mad') 64-bit
  13. Writing library                          : libebml v1.4.1 + libmatroska v1.6.2
  14. Video
  15. ID                                       : 4
  16. Format                                   : HEVC
  17. Format/Info                              : High Efficiency Video Coding
  18. Format profile                           : Main [email protected]@High
  19. Codec ID                                 : V_MPEGH/ISO/HEVC
  20. Duration                                 : 1 h 22 min
  21. Bit rate                                 : 6 902 kb/s
  22. Width                                    : 1 920 pixels
  23. Height                                   : 916 pixels
  24. Display aspect ratio                     : 2.096
  25. Frame rate mode                          : Constant
  26. Frame rate                               : 23.976 (24000/1001/53875) FPS
  27. Color space                              : YUV
  28. Chroma subsampling                       : 4:2:0
  29. Bit depth                                : 10 bits
  30. Bits/(Pixel*Frame)                       : 0.164
  31. Stream size                              : 3.99 GiB (91%)
  32. Writing library                          : x265 3.4+30-g6722fce1f:[Windows][GCC 10.2.0][64 bit] 10bit
  33. Encoding settings                        : cpuid=538751111039 / frame-threads=3 / numa-pools=8 / wpp / pmode / no-pme / no-psnr / no-ssim / log-level=2 / input-csp=1 / input-res=1920x916 / interlace=0 / total-frames=118957 / level-idc=0 / high-tier=1 / uhd-bd=0 / ref=6 / no-allow-non-conformance / no-repeat-headers / annexb / no-aud / no-hrd / info / hash=0 / no-temporal-layers / no-open-gop / min-keyint=23 / keyint=250 / gop-lookahead=0 / bframes=16 / b-adapt=2 / b-pyramid / bframe-bias=0 / rc-lookahead=100 / lookahead-slices=0 / NTM4NzU=uuDQuD2mJt9fsCf / scenecut=40 / hist-scenecut=0 / radl=0 / no-splice / no-intra-refresh / ctu=32 / min-cu-size=8 / no-rect / no-amp / max-tu-size=32 / tu-inter-depth=4 / tu-intra-depth=4 / limit-tu=0 / rdoq-level=2 / dynamic-rd=0.00 / no-ssim-rd / signhide / no-tskip / nr-intra=0 / nr-inter=0 / no-constrained-intra / strong-intra-smoothing / max-merge=5 / limit-refs=0 / no-limit-modes / me=3 / subme=7 / merange=57 / temporal-mvp / no-frame-dup / no-hme / weightp / weightb / no-analyze-src-pics / deblock=-3:-3 / no-sao / no-sao-non-deblock / rd=4 / selective-sao=0 / no-early-skip / no-rskip / no-fast-intra / no-tskip-fast / no-cu-lossless / b-intra / no-splitrd-skip / rdpenalty=0 / psy-rd=1.00 / psy-rdoq=1.00 / no-rd-refine / no-lossless / cbqpoffs=0 / crqpoffs=0 / rc=crf / crf=19.5 / qcomp=0.60 / qpstep=4 / stats-write=0 / stats-read=0 / vbv-maxrate=160000 / vbv-bufsize=160000 / vbv-init=0.9 / min-vbv-fullness=50.0 / max-vbv-fullness=80.0 / crf-max=0.0 / crf-min=0.0 / ipratio=1.30 / pbratio=1.20 / aq-mode=1 / aq-strength=1.00 / no-cutree / zone-count=0 / no-strict-cbr / qg-size=32 / no-rc-grain / qpmax=69 / qpmin=0 / no-const-vbv / sar=0 / overscan=0 / videoformat=5 / range=0 / colorprim=1 / transfer=1 / colormatrix=1 / chromaloc=0 / display-window=0 / cll=0,0 / min-luma=0 / max-luma=1023 / log2-max-poc-lsb=8 / vui-timing-info / vui-hrd-info / slices=1 / no-opt-qp-pps / no-opt-ref-list-length-pps / no-multi-pass-opt-rps / scenecut-bias=0.05 / hist-threshold=0.03 / no-opt-cu-delta-qp / no-aq-motion / no-hdr10 / no-hdr10-opt / no-dhdr10-opt / no-idr-recovery-sei / analysis-reuse-level=0 / analysis-save-reuse-level=0 / analysis-load-reuse-level=0 / scale-factor=0 / refine-intra=0 / refine-inter=0 / refine-mv=1 / refine-ctu-distortion=0 / no-limit-sao / ctu-info=0 / no-lowpass-dct / refine-analysis-type=0 / copy-pic=1 / max-ausize-factor=1.0 / no-dynamic-refine / no-single-sei / no-hevc-aq / no-svt / no-field / qp-adaptation-range=1.00 / no-scenecut-aware-qpconformance-window-offsets / right=0 / bottom=0 / NTM4NzU= / decoder-max-rate=0 / no-vbv-live-multi-pass
  34. Default                                  : Yes
  35. Forced                                   : No
  36. Color range                              : Limited
  37. Color primaries                          : BT.709
  38. Transfer characteristics                 : BT.709
  39. Matrix coefficients                      : BT.709
  40. Audio
  41. ID                                       : 5
  42. Format                                   : AC-3
  43. Format/Info                              : Audio Coding 3
  44. Commercial name                          : Dolby Digital
  45. Codec ID                                 : A_AC3
  46. Duration                                 : 1 h 22 min
  47. Bit rate mode                            : Constant
  48. Bit rate                                 : 640 kb/s
  49. Channel(s)                               : 6 channels
  50. Channel layout                           : L R C LFE Ls Rs
  51. Sampling rate                            : 48.0 kHz
  52. Frame rate                               : 31.250 FPS (1536 SPF)
  53. Compression mode                         : Lossy
  54. Stream size                              : 379 MiB (8%)
  55. Language                                 : English
  56. Service kind                             : Complete Main
  57. Default                                  : Yes
  58. Forced                                   : No
  59. Text #1
  60. ID                                       : 1
  61. ID in the original source medium         : 4608 (0x1200)
  62. Format                                   : PGS
  63. Muxing mode                              : zlib
  64. Codec ID                                 : S_HDMV/PGS
  65. Codec ID/Info                            : Picture based subtitle format used on BDs/HD-DVDs
  66. Duration                                 : 1 h 19 min
  67. Bit rate                                 : 25.0 kb/s
  68. Count of elements                        : 1892
  69. Stream size                              : 14.1 MiB (0%)
  70. Title                                    : eng
  71. Language                                 : English
  72. Default                                  : No
  73. Forced                                   : No
  74. Original source medium                   : Blu-ray
  75. Text #2
  76. ID                                       : 2
  77. Format                                   : UTF-8
  78. Codec ID                                 : S_TEXT/UTF8
  79. Codec ID/Info                            : UTF-8 Plain Text
  80. Duration                                 : 1 h 19 min
  81. Bit rate                                 : 33 b/s
  82. Count of elements                        : 810
  83. Stream size                              : 19.3 KiB (0%)
  84. Title                                    : chs
  85. Language                                 : Chinese
  86. Default                                  : Yes
  87. Forced                                   : No
  88. Text #3
  89. ID                                       : 3
  90. Format                                   : UTF-8
  91. Codec ID                                 : S_TEXT/UTF8
  92. Codec ID/Info                            : UTF-8 Plain Text
  93. Duration                                 : 1 h 19 min
  94. Bit rate                                 : 33 b/s
  95. Count of elements                        : 810
  96. Stream size                              : 19.3 KiB (0%)
  97. Title                                    : cht
  98. Language                                 : Chinese
  99. Default                                  : No
  100. Forced                                   : No
  101. Menu
  102. 00:00:00.000                             : en:第 01 章
  103. 00:05:18.901                             : en:第 02 章
  104. 00:12:03.222                             : en:第 03 章
  105. 00:19:55.569                             : en:第 04 章
  106. 00:26:51.735                             : en:第 05 章
  107. 00:31:52.577                             : en:第 06 章
  108. 00:38:59.587                             : en:第 07 章
  109. 00:46:00.132                             : en:第 08 章
  110. 00:52:09.334                             : en:第 09 章
  111. 01:00:06.311                             : en:第 10 章
  112. 01:08:15.674                             : en:第 11 章
  113. 01:14:33.343                             : en:第 12 章
  114. 01:20:04.382                             : en:第 13 章
复制代码

















保举请利用qBittorrent,utorrent,transmission等标准BT软件下载!以获得最快速度。奉求保种!





回复

使用道具 举报

懒得打字嘛,点击右侧快捷回复 【右侧内容,后台自定义】
您需要登录后才可以回帖 登录 | 立即加入

本版积分规则

Archiver|小黑屋| 蓝光电影网 |网站地图

Copyright © 2021 Comsenz Inc. Powered by 蓝光电影网

蓝光电影网

本站内容由用户自主分享和转载自互联网,转载目的在于传递更多信息,并不代表本网赞同其观点和对其真实性负责。

如有侵权、违反国家法律政策行为,请联系我们,我们会第一时间及时清除和处理!

举报反馈邮箱:[email protected]

快速回复 返回顶部 返回列表