找回密码

蓝光电影网

查看: 37|回复: 0

[剧情] 一页台北[国语音轨/中英字幕].Au.Revoir.Taipei.2010.Bluray.1080p.x265.10bit.DDP.5.1-MiniHD 5.15GB

[复制链接]
蓝光币
7
发表于 2022-7-27 02:16:19 | 显示全部楼层 |阅读模式


◎标  题 一页台北
◎译  名 First Page Taipei / Au revoir Taipei
◎片  名 一頁台北
◎年  代 2010
◎产  地 中国台湾 / 美国
◎类  别 笑剧 / 恋爱
◎语  言 汉语普通话 / 闽南语
◎上映日期 2010-04-02
◎IMDb评分 6.5/10 (1397人评价)
◎IMDb链接 https://www.imdb.com/title/tt1291125/
◎豆瓣评分 6.6/10 (77889人评价)
◎豆瓣链接 https://movie.douban.com/subject/3217122/
◎片  长 85分钟
◎导  演 陈骏霖 Arvin Chen
◎编  剧 陈骏霖 Arvin Chen
◎演  员 郭采洁 Amber Kuo
       姚淳耀 Jack Yao
       张孝全 Joseph Chang
       杨祐宁 Yo Yang
       柯宇纶 Lawrence Ko
       高捷 Jack Kao
       邱秀敏 Hsiu-min Chiu
       高凌风 Frankie Kao
       连奕琦 Yi-chi Lien
       姜康哲 Paul Chiang
       曾珮瑜 Peggy Tseng
       严正岚 Vera Yen
◎标  签 台湾电影 / 台湾 / 青春 / 一页台北 / 恋爱 / 郭采洁 / 张孝全 / 2010
◎简  介
    台北的夜,灯火通明。小凯(姚淳耀 饰)帮女友整理好行囊,依依惜别。她去了巴黎,相思让他拼命补习法语,希望有朝一日团圆。时代,他在书店结识了伙计Susie(郭采洁 饰),两人渐渐发生了豪情。小凯的爸爸(高捷 饰)开了家小吃店,小凯的朋友高高常来帮衬,并报告懵懂恋爱。老顾客还包括黑道人物豹哥,后者面临中年危机,更愿意谈情,而非买卖。可是他的小弟阿洪(柯宇纶 饰)却跃跃欲试,预备干一票大的,以证实自己。终究,他等到了一次机遇。豹哥的合股人把一批货落在了佛龛里。面临差人(张孝全 饰)的钉梢无从动手。为了拿到这批货,豹哥许诺帮助小凯去巴黎,将此事交给了他。可是阿洪决议自己单干。因而,一场螳螂捕蝉黄雀在后的游戏起头了……                                                                      本片获柏林电影节最好亚洲电影奖。
  1. ##### MediaInfo ######
  2. General
  3. Unique ID                                : 146230874590143268777023056633319409578 (0x6E030AC19B67ADC61397254503BC47AA)
  4. Complete name                            : Au.Revoir.Taipei.2010.Bluray.1080p.x265.10bit.DDP.5.1-MiniHD.mkv
  5. Format                                   : Matroska
  6. Format version                           : Version 4
  7. File size                                : 5.14 GiB
  8. Duration                                 : 1 h 24 min
  9. Overall bit rate                         : 8 706 kb/s
  10. Movie name                               : Au Revoir Taipei
  11. Encoded date                             : UTC 2021-01-23 07:57:38
  12. Writing application                      : mkvmerge v51.0.0 ('I Wish') 64-bit
  13. Writing library                          : libebml v1.4.0 + libmatroska v1.6.2
  14. Cover                                    : Yes
  15. Attachments                              : cover.jpg
  16. Video
  17. ID                                       : 1
  18. Format                                   : HEVC
  19. Format/Info                              : High Efficiency Video Coding
  20. Format profile                           : Main [email protected]@High
  21. Codec ID                                 : V_MPEGH/ISO/HEVC
  22. Duration                                 : 1 h 24 min
  23. Bit rate                                 : 7 403 kb/s
  24. Width                                    : 1 920 pixels
  25. Height                                   : 1 080 pixels
  26. Display aspect ratio                     : 16:9
  27. Frame rate mode                          : Constant
  28. Frame rate                               : 23.976 (24000/1001/53875) FPS
  29. Color space                              : YUV
  30. Chroma subsampling                       : 4:2:0
  31. Bit depth                                : 10 bits
  32. Bits/(Pixel*Frame)                       : 0.149
  33. Stream size                              : 4.37 GiB (85%)
  34. Writing library                          : x265 3.4+33-606265ac7:[Windows][MSVC 1928][64 bit] 10bit
  35. Encoding settings                        : cpuid=538751049583 / frame-threads=5 / numa-pools=20,20,20,20 / wpp / pmode / no-pme / no-psnr / no-ssim / log-level=2 / input-csp=1 / input-res=1920x1080 / interlace=0 / total-frames=121680 / level-idc=0 / high-tier=1 / uhd-bd=0 / ref=4 / no-allow-non-conformance / no-repeat-headers / annexb / no-aud / no-hrd / info / hash=0 / no-temporal-layers / no-open-gop / min-keyint=1 / keyint=250 / gop-lookahead=0 / bframes=6 / b-adapt=2 / b-pyramid / bframe-bias=0 / rc-lookahead=80 / lookahead-slices=0 / NTM4NzU=uuDQuD2mJt9fsCf / scenecut=40 / hist-scenecut=0 / radl=0 / no-splice / no-intra-refresh / ctu=32 / min-cu-size=8 / no-rect / no-amp / max-tu-size=32 / tu-inter-depth=4 / tu-intra-depth=4 / limit-tu=0 / rdoq-level=2 / dynamic-rd=0.00 / no-ssim-rd / signhide / tskip / nr-intra=0 / nr-inter=0 / no-constrained-intra / strong-intra-smoothing / max-merge=5 / limit-refs=0 / no-limit-modes / me=3 / subme=7 / merange=44 / temporal-mvp / no-frame-dup / no-hme / weightp / weightb / no-analyze-src-pics / deblock=-3:-3 / no-sao / no-sao-non-deblock / rd=4 / selective-sao=0 / no-early-skip / no-rskip / no-fast-intra / no-tskip-fast / no-cu-lossless / b-intra / no-splitrd-skip / rdpenalty=0 / psy-rd=1.50 / psy-rdoq=1.00 / no-rd-refine / no-lossless / cbqpoffs=-2 / crqpoffs=-2 / rc=crf / crf=21.0 / qcomp=0.65 / qpstep=4 / stats-write=0 / stats-read=0 / vbv-maxrate=160000 / vbv-bufsize=160000 / vbv-init=0.9 / min-vbv-fullness=50.0 / max-vbv-fullness=80.0 / crf-max=0.0 / crf-min=0.0 / ipratio=1.30 / pbratio=1.20 / aq-mode=2 / aq-strength=0.90 / no-cutree / zone-count=0 / no-strict-cbr / qg-size=8 / no-rc-grain / qpmax=69 / qpmin=0 / no-const-vbv / sar=0 / overscan=0 / videoformat=5 / range=0 / colorprim=1 / transfer=1 / colormatrix=1 / chromaloc=0 / display-window=0 / cll=0,0 / min-luma=0 / max-luma=1023 / log2-max-poc-lsb=8 / vui-timing-info / vui-hrd-info / slices=1 / no-opt-qp-pps / no-opt-ref-list-length-pps / no-multi-pass-opt-rps / scenecut-bias=0.05 / hist-threshold=0.03 / no-opt-cu-delta-qp / no-aq-motion / no-hdr10 / no-hdr10-opt / no-dhdr10-opt / no-idr-recovery-sei / analysis-reuse-level=0 / analysis-save-reuse-level=0 / analysis-load-reuse-level=0 / scale-factor=0 / refine-intra=0 / refine-inter=0 / refine-mv=1 / refine-ctu-distortion=0 / no-limit-sao / ctu-info=0 / no-lowpass-dct / refine-analysis-type=0 / copy-pic=1 / max-ausize-factor=1.0 / no-dynamic-refine / no-single-sei / no-hevc-aq / no-svt / no-field / qp-adaptation-range=1.00 / scenecut-aware-qp=0conformance-window-offsets / right=0 / bottom=0 / NTM4NzU= / decoder-max-rate=0 / no-vbv-live-multi-pass
  36. Default                                  : Yes
  37. Forced                                   : No
  38. Color range                              : Limited
  39. Color primaries                          : BT.709
  40. Transfer characteristics                 : BT.709
  41. Matrix coefficients                      : BT.709
  42. Audio #1
  43. ID                                       : 2
  44. Format                                   : E-AC-3
  45. Format/Info                              : Enhanced AC-3
  46. Commercial name                          : Dolby Digital Plus
  47. Codec ID                                 : A_EAC3
  48. Duration                                 : 1 h 24 min
  49. Bit rate mode                            : Constant
  50. Bit rate                                 : 1 023 kb/s
  51. Channel(s)                               : 6 channels
  52. Channel layout                           : L R C LFE Ls Rs
  53. Sampling rate                            : 48.0 kHz
  54. Frame rate                               : 93.750 FPS (512 SPF)
  55. Compression mode                         : Lossy
  56. Stream size                              : 619 MiB (12%)
  57. Language                                 : Chinese
  58. Service kind                             : Complete Main
  59. Default                                  : Yes
  60. Forced                                   : No
  61. Audio #2
  62. ID                                       : 3
  63. ID in the original source medium         : 4353 (0x1101)
  64. Format                                   : AC-3
  65. Format/Info                              : Audio Coding 3
  66. Commercial name                          : Dolby Digital
  67. Codec ID                                 : A_AC3
  68. Duration                                 : 1 h 24 min
  69. Bit rate mode                            : Constant
  70. Bit rate                                 : 256 kb/s
  71. Channel(s)                               : 2 channels
  72. Channel layout                           : L R
  73. Sampling rate                            : 48.0 kHz
  74. Frame rate                               : 31.250 FPS (1536 SPF)
  75. Compression mode                         : Lossy
  76. Stream size                              : 155 MiB (3%)
  77. Title                                    : Commentary
  78. Language                                 : Chinese
  79. Service kind                             : Complete Main
  80. Default                                  : No
  81. Forced                                   : No
  82. Original source medium                   : Blu-ray
  83. Text #1
  84. ID                                       : 4
  85. ID in the original source medium         : 4608 (0x1200)
  86. Format                                   : PGS
  87. Muxing mode                              : zlib
  88. Codec ID                                 : S_HDMV/PGS
  89. Codec ID/Info                            : Picture based subtitle format used on BDs/HD-DVDs
  90. Duration                                 : 1 h 14 min
  91. Bit rate                                 : 32.1 kb/s
  92. Count of elements                        : 2226
  93. Stream size                              : 17.2 MiB (0%)
  94. Language                                 : Chinese
  95. Default                                  : Yes
  96. Forced                                   : No
  97. Original source medium                   : Blu-ray
  98. Text #2
  99. ID                                       : 5
  100. ID in the original source medium         : 4609 (0x1201)
  101. Format                                   : PGS
  102. Muxing mode                              : zlib
  103. Codec ID                                 : S_HDMV/PGS
  104. Codec ID/Info                            : Picture based subtitle format used on BDs/HD-DVDs
  105. Duration                                 : 1 h 14 min
  106. Bit rate                                 : 32.0 kb/s
  107. Count of elements                        : 2226
  108. Stream size                              : 17.2 MiB (0%)
  109. Language                                 : English
  110. Default                                  : No
  111. Forced                                   : No
  112. Original source medium                   : Blu-ray
  113. Menu
  114. 00:00:00.000                             : en:第 01 章
  115. 00:07:04.382                             : en:第 02 章
  116. 00:14:03.801                             : en:第 03 章
  117. 00:21:00.842                             : en:第 04 章
  118. 00:28:08.645                             : en:第 05 章
  119. 00:35:00.598                             : en:第 06 章
  120. 00:42:00.017                             : en:第 07 章
  121. 00:49:04.232                             : en:第 08 章
  122. 00:56:08.365                             : en:第 09 章
  123. 01:03:06.949                             : en:第 10 章
  124. 01:10:03.240                             : en:第 11 章
  125. 01:17:05.120                             : en:第 12 章
复制代码



保举请利用qBittorrent,utorrent,transmission等标准BT软件下载!以获得最快速度。奉求保种!





回复

使用道具 举报

懒得打字嘛,点击右侧快捷回复 【右侧内容,后台自定义】
您需要登录后才可以回帖 登录 | 立即加入

本版积分规则

Archiver|小黑屋| 蓝光电影网 |网站地图

Copyright © 2021 Comsenz Inc. Powered by 蓝光电影网

蓝光电影网

本站内容由用户自主分享和转载自互联网,转载目的在于传递更多信息,并不代表本网赞同其观点和对其真实性负责。

如有侵权、违反国家法律政策行为,请联系我们,我们会第一时间及时清除和处理!

举报反馈邮箱:[email protected]

快速回复 返回顶部 返回列表