找回密码

蓝光电影网

查看: 44|回复: 0

[剧情] 关于爱[简繁字幕].About.Love.2017.GER.Bluray.1080p.x265.10bit.DDP.5.1-MiniHD 5.86GB

[复制链接]
蓝光币
7
发表于 2022-7-27 02:16:21 | 显示全部楼层 |阅读模式


◎标  题 关于爱
◎译  名 烈爱买卖(台) / O lyubvi / About Love / 不倫の果て
◎片  名 О любви
◎年  代 2017
◎产  地 俄罗斯
◎类  别 剧情 / 恋爱
◎语  言 俄语
◎上映日期 2017-03-23(俄罗斯)
◎IMDb评分 4.9/10 (391人评价)
◎IMDb链接 https://www.imdb.com/title/tt5091108/
◎豆瓣评分 6.4/10 (2416人评价)
◎豆瓣链接 https://movie.douban.com/subject/27007975/
◎片  长 97分钟
◎导  演 弗拉基米尔·博尔特科 Vladimir Bortko
◎编  剧 弗拉基米尔·博尔特科 Vladimir Bortko
◎演  员 安娜·奇波夫斯卡娅 Anna Chipovskaya
       德米特里·佩夫佐夫 Dmitriy Pevtsov
       阿雷克西·查多夫 Aleksey Chadov
       玛丽亚·米罗诺娃 Mariya Mironova
       亚历山大·里科夫 Aleksandr Lykov
       恩斯特·罗曼诺夫 Ernst Romanov
◎简  介
  妮娜(安娜·车波夫斯卡 Anna Chipovskaya 饰)和丈夫亚历山大(阿雷克西·查多夫 Aleksei Chadov 饰)之间的豪情很是要好,两小我一个具有美丽的样貌,一个具有丰富的学问,他们的婚姻一向都是朋友们眼中的典型。但是,当严重的财政危机击中了这个家庭后,妮娜和亚历山大起头渐行渐远,两人的婚姻出现了裂缝。                                    
                                亚历山大欠了银行一大笔钱,而负责处置这笔债权的,是名叫谢尔盖(Dmitri Pevtsov 饰)的男人。虽然谢尔盖也有着自己的妻子和家庭,可是,在同妮娜相处的进程中,两人不成自持的发生了背德的豪情。在这股豪情的漩涡里,妮娜越陷越深。
  1. ##### MediaInfo ######
  2. General
  3. Unique ID                                : 109982531861345389934245498026321565140 (0x52BDDD7A4840900A8C18B86C7CECD5D4)
  4. Complete name                            : About.Love.2017.GER.Bluray.1080p.x265.10bit.DDP.5.1-MiniHD.mkv
  5. Format                                   : Matroska
  6. Format version                           : Version 4
  7. File size                                : 5.86 GiB
  8. Duration                                 : 1 h 34 min
  9. Overall bit rate                         : 8 833 kb/s
  10. Movie name                               : About Love 2017 GER BluRay 1080p FRDS
  11. Encoded date                             : UTC 2021-03-02 11:21:01
  12. Writing application                      : mkvmerge v53.0.0 ('Fool's Gold') 64-bit
  13. Writing library                          : libebml v1.4.1 + libmatroska v1.6.2
  14. Cover                                    : Yes
  15. Attachments                              : cover.jpg
  16. Video
  17. ID                                       : 1
  18. Format                                   : HEVC
  19. Format/Info                              : High Efficiency Video Coding
  20. Format profile                           : Main [email protected]@High
  21. Codec ID                                 : V_MPEGH/ISO/HEVC
  22. Duration                                 : 1 h 34 min
  23. Bit rate                                 : 8 022 kb/s
  24. Width                                    : 1 920 pixels
  25. Height                                   : 1 040 pixels
  26. Display aspect ratio                     : 1.85:1
  27. Frame rate mode                          : Constant
  28. Frame rate                               : 24.000 FPS
  29. Color space                              : YUV
  30. Chroma subsampling                       : 4:2:0
  31. Bit depth                                : 10 bits
  32. Bits/(Pixel*Frame)                       : 0.167
  33. Stream size                              : 5.32 GiB (91%)
  34. Writing library                          : x265 3.4+33-606265ac7:[Windows][MSVC 1928][64 bit] 10bit
  35. Encoding settings                        : cpuid=538751111039 / frame-threads=2 / numa-pools=4 / wpp / pmode / no-pme / no-psnr / no-ssim / log-level=2 / input-csp=1 / input-res=1920x1040 / interlace=0 / total-frames=136657 / level-idc=0 / high-tier=1 / uhd-bd=0 / ref=4 / no-allow-non-conformance / no-repeat-headers / annexb / no-aud / no-hrd / info / hash=0 / no-temporal-layers / no-open-gop / min-keyint=1 / keyint=250 / gop-lookahead=0 / bframes=6 / b-adapt=2 / b-pyramid / bframe-bias=0 / rc-lookahead=80 / lookahead-slices=0 / NTM4NzU=uuDQuD2mJt9fsCf / scenecut=40 / hist-scenecut=0 / radl=0 / no-splice / no-intra-refresh / ctu=32 / min-cu-size=8 / no-rect / no-amp / max-tu-size=32 / tu-inter-depth=4 / tu-intra-depth=4 / limit-tu=0 / rdoq-level=2 / dynamic-rd=0.00 / no-ssim-rd / signhide / tskip / nr-intra=0 / nr-inter=0 / no-constrained-intra / strong-intra-smoothing / max-merge=5 / limit-refs=0 / no-limit-modes / me=3 / subme=7 / merange=44 / temporal-mvp / no-frame-dup / no-hme / weightp / weightb / no-analyze-src-pics / deblock=-3:-3 / no-sao / no-sao-non-deblock / rd=4 / selective-sao=0 / no-early-skip / no-rskip / no-fast-intra / no-tskip-fast / no-cu-lossless / b-intra / no-splitrd-skip / rdpenalty=0 / psy-rd=1.50 / psy-rdoq=1.00 / no-rd-refine / no-lossless / cbqpoffs=-2 / crqpoffs=-2 / rc=crf / crf=21.0 / qcomp=0.65 / qpstep=4 / stats-write=0 / stats-read=0 / vbv-maxrate=160000 / vbv-bufsize=160000 / vbv-init=0.9 / min-vbv-fullness=50.0 / max-vbv-fullness=80.0 / crf-max=0.0 / crf-min=0.0 / ipratio=1.30 / pbratio=1.20 / aq-mode=1 / aq-strength=1.00 / no-cutree / zone-count=0 / no-strict-cbr / qg-size=8 / no-rc-grain / qpmax=69 / qpmin=0 / no-const-vbv / sar=0 / overscan=0 / videoformat=5 / range=0 / colorprim=1 / transfer=1 / colormatrix=1 / chromaloc=0 / display-window=0 / cll=0,0 / min-luma=0 / max-luma=1023 / log2-max-poc-lsb=8 / vui-timing-info / vui-hrd-info / slices=1 / no-opt-qp-pps / no-opt-ref-list-length-pps / no-multi-pass-opt-rps / scenecut-bias=0.05 / hist-threshold=0.03 / no-opt-cu-delta-qp / no-aq-motion / no-hdr10 / no-hdr10-opt / no-dhdr10-opt / no-idr-recovery-sei / analysis-reuse-level=0 / analysis-save-reuse-level=0 / analysis-load-reuse-level=0 / scale-factor=0 / refine-intra=0 / refine-inter=0 / refine-mv=1 / refine-ctu-distortion=0 / no-limit-sao / ctu-info=0 / no-lowpass-dct / refine-analysis-type=0 / copy-pic=1 / max-ausize-factor=1.0 / no-dynamic-refine / no-single-sei / no-hevc-aq / no-svt / no-field / qp-adaptation-range=1.00 / scenecut-aware-qp=0conformance-window-offsets / right=0 / bottom=0 / NTM4NzU= / decoder-max-rate=0 / no-vbv-live-multi-pass
  36. Default                                  : Yes
  37. Forced                                   : No
  38. Color range                              : Limited
  39. Color primaries                          : BT.709
  40. Transfer characteristics                 : BT.709
  41. Matrix coefficients                      : BT.709
  42. Audio
  43. ID                                       : 2
  44. Format                                   : E-AC-3
  45. Format/Info                              : Enhanced AC-3
  46. Commercial name                          : Dolby Digital Plus
  47. Codec ID                                 : A_EAC3
  48. Duration                                 : 1 h 34 min
  49. Bit rate mode                            : Constant
  50. Bit rate                                 : 768 kb/s
  51. Channel(s)                               : 6 channels
  52. Channel layout                           : L R C LFE Ls Rs
  53. Sampling rate                            : 48.0 kHz
  54. Frame rate                               : 62.500 FPS (768 SPF)
  55. Compression mode                         : Lossy
  56. Stream size                              : 521 MiB (9%)
  57. Language                                 : Russian
  58. Service kind                             : Complete Main
  59. Default                                  : Yes
  60. Forced                                   : No
  61. Text #1
  62. ID                                       : 3
  63. ID in the original source medium         : 4610 (0x1202)
  64. Format                                   : PGS
  65. Muxing mode                              : zlib
  66. Codec ID                                 : S_HDMV/PGS
  67. Codec ID/Info                            : Picture based subtitle format used on BDs/HD-DVDs
  68. Duration                                 : 1 h 33 min
  69. Bit rate                                 : 25.0 kb/s
  70. Count of elements                        : 2580
  71. Stream size                              : 16.8 MiB (0%)
  72. Title                                    : CHS
  73. Language                                 : Chinese
  74. Default                                  : Yes
  75. Forced                                   : No
  76. Original source medium                   : Blu-ray
  77. Text #2
  78. ID                                       : 4
  79. ID in the original source medium         : 4611 (0x1203)
  80. Format                                   : PGS
  81. Muxing mode                              : zlib
  82. Codec ID                                 : S_HDMV/PGS
  83. Codec ID/Info                            : Picture based subtitle format used on BDs/HD-DVDs
  84. Duration                                 : 1 h 33 min
  85. Bit rate                                 : 26.0 kb/s
  86. Count of elements                        : 2580
  87. Stream size                              : 17.4 MiB (0%)
  88. Title                                    : CHT
  89. Language                                 : Chinese
  90. Default                                  : No
  91. Forced                                   : No
  92. Original source medium                   : Blu-ray
  93. Text #3
  94. ID                                       : 5
  95. ID in the original source medium         : 4608 (0x1200)
  96. Format                                   : PGS
  97. Muxing mode                              : zlib
  98. Codec ID                                 : S_HDMV/PGS
  99. Codec ID/Info                            : Picture based subtitle format used on BDs/HD-DVDs
  100. Duration                                 : 1 h 30 min
  101. Bit rate                                 : 23.1 kb/s
  102. Count of elements                        : 1887
  103. Stream size                              : 14.9 MiB (0%)
  104. Language                                 : German
  105. Default                                  : No
  106. Forced                                   : No
  107. Original source medium                   : Blu-ray
  108. Text #4
  109. ID                                       : 6
  110. ID in the original source medium         : 4609 (0x1201)
  111. Format                                   : PGS
  112. Muxing mode                              : zlib
  113. Codec ID                                 : S_HDMV/PGS
  114. Codec ID/Info                            : Picture based subtitle format used on BDs/HD-DVDs
  115. Duration                                 : 37 min 42 s
  116. Bit rate                                 : 78 b/s
  117. Count of elements                        : 4
  118. Stream size                              : 21.6 KiB (0%)
  119. Language                                 : German
  120. Default                                  : No
  121. Forced                                   : No
  122. Original source medium                   : Blu-ray
  123. Menu
  124. 00:00:00.000                             : en:Chapter 01
  125. 00:02:12.125                             : en:Chapter 02
  126. 00:10:15.916                             : en:Chapter 03
  127. 00:19:23.666                             : en:Chapter 04
  128. 00:29:37.708                             : en:Chapter 05
  129. 00:40:01.208                             : en:Chapter 06
  130. 00:49:51.500                             : en:Chapter 07
  131. 00:57:34.041                             : en:Chapter 08
  132. 01:06:32.250                             : en:Chapter 09
  133. 01:13:10.125                             : en:Chapter 10
  134. 01:21:19.208                             : en:Chapter 11
  135. 01:31:52.458                             : en:Chapter 12
复制代码



保举请利用qBittorrent,utorrent,transmission等标准BT软件下载!以获得最快速度。奉求保种!





回复

使用道具 举报

懒得打字嘛,点击右侧快捷回复 【右侧内容,后台自定义】
您需要登录后才可以回帖 登录 | 立即加入

本版积分规则

Archiver|小黑屋| 蓝光电影网 |网站地图

Copyright © 2021 Comsenz Inc. Powered by 蓝光电影网

蓝光电影网

本站内容由用户自主分享和转载自互联网,转载目的在于传递更多信息,并不代表本网赞同其观点和对其真实性负责。

如有侵权、违反国家法律政策行为,请联系我们,我们会第一时间及时清除和处理!

举报反馈邮箱:[email protected]

快速回复 返回顶部 返回列表