找回密码

蓝光电影网

查看: 45|回复: 0

[剧情] 决战异世界[简繁字幕].Abduction.2019.Bluray.1080p.x265.10bit-MiniHD 5.13GB

[复制链接]
蓝光币
7
发表于 2022-7-27 02:16:19 | 显示全部楼层 |阅读模式


◎标  题 决战异天下
◎译  名 生死鬼蜮 / Abduction
◎年  代 2019
◎产  地 中国大陆 / 美国
◎类  别 行动 / 科幻
◎语  言 汉语普通话 / 英语
◎上映日期 2019-04-28(中国大陆) / 2019-03-12(瑞典)
◎IMDb评分 4.8/10 (4554人评价)
◎IMDb链接 https://www.imdb.com/title/tt7867360/
◎豆瓣评分 3.9/10 (548人评价)
◎豆瓣链接 https://movie.douban.com/subject/26921002/
◎片  长 106分钟 / 70分钟(中国大陆)
◎导  演 厄尼·巴巴拉什 Ernie Barbarash
◎编  剧 陈子豪
       林男男 Nannan Lin
◎演  员 斯科特·阿金斯 Scott Adkins
       安志杰 Andy On
       张玉英 Truong Ngoc Anh
       吉丽 Lily Ji
       阿基·阿莱格 Aki Aleong
       麦克·里德 Mike Leeder
       布拉汉姆·艾克巴赫 Brahim Achabbakhe
       狼森 Philippe Joly
       Michael Darrow Michael Darrow
       伍玉琪 Andrew Ng
       马铁摩 Temur Mamisashvili
       何文海 Paul He
◎标  签 行动 / 科幻 / 美国 / 2019 / 荒诞 / 斯科特阿金斯 / 安志杰 / 电影
◎简  介
    柯楠为财团大佬效力多年,是其很是信赖的保镳。但是为了与妻子回故乡过平稳日子,他不惜递交辞呈,背上叛徒的罪名。柯楠满心期待与妻子起头新的生活,怎料在一个深夜,妻子被三个穿着长袍的奥秘人绑架,他掉臂一切想要阻止,但发生在眼前的连续串怪异现象让他力所不及。在城市的另一个角落,肉搏专家奎因的爱女古怪失落,他从三个奥秘人手中死里逃生,却不知为何被传送到一个陌生的地方,甚至落空记忆,漂泊精神医院。在潘医生的帮助下,奎因逐步找回记忆的碎片,并碰到一样在打探家人着落的柯楠。惊人类似的古怪遭受息争救亲人的决心,让二人决心联手同业。随着观察不竭深入,他们发现这一切竟与外星生命有关,而对方的实在目标,使人胆寒。
  1. ##### MediaInfo ######
  2. General
  3. Unique ID                                : 231016510254880414902917722312156117828 (0xADCC2956691EC7F6C8AB0895939BFB44)
  4. Complete name                            : Abduction.2019.Bluray.1080p.x265.10bit-MiniHD.mkv
  5. Format                                   : Matroska
  6. Format version                           : Version 4
  7. File size                                : 5.13 GiB
  8. Duration                                 : 1 h 37 min
  9. Overall bit rate                         : 7 565 kb/s
  10. Movie name                               : Abduction [2019] Bluray 1080p MNHD-FRDS
  11. Encoded date                             : UTC 2021-01-23 09:18:15
  12. Writing application                      : mkvmerge v52.0.0 ('Secret For The Mad') 64-bit
  13. Writing library                          : libebml v1.4.1 + libmatroska v1.6.2
  14. Video
  15. ID                                       : 5
  16. Format                                   : HEVC
  17. Format/Info                              : High Efficiency Video Coding
  18. Format profile                           : Main [email protected]@High
  19. Codec ID                                 : V_MPEGH/ISO/HEVC
  20. Duration                                 : 1 h 37 min
  21. Bit rate                                 : 6 902 kb/s
  22. Width                                    : 1 920 pixels
  23. Height                                   : 1 080 pixels
  24. Display aspect ratio                     : 16:9
  25. Frame rate mode                          : Constant
  26. Frame rate                               : 23.976 (24000/1001/53875) FPS
  27. Color space                              : YUV
  28. Chroma subsampling                       : 4:2:0
  29. Bit depth                                : 10 bits
  30. Bits/(Pixel*Frame)                       : 0.139
  31. Stream size                              : 4.68 GiB (91%)
  32. Writing library                          : x265 3.4+30-g6722fce1f:[Windows][GCC 10.2.0][64 bit] 10bit
  33. Encoding settings                        : cpuid=538751111039 / frame-threads=3 / numa-pools=8 / wpp / pmode / no-pme / no-psnr / no-ssim / log-level=2 / input-csp=1 / input-res=1920x1080 / interlace=0 / total-frames=139729 / level-idc=0 / high-tier=1 / uhd-bd=0 / ref=6 / no-allow-non-conformance / no-repeat-headers / annexb / no-aud / no-hrd / info / hash=0 / no-temporal-layers / no-open-gop / min-keyint=23 / keyint=250 / gop-lookahead=0 / bframes=16 / b-adapt=2 / b-pyramid / bframe-bias=0 / rc-lookahead=100 / lookahead-slices=0 / NTM4NzU=uuDQuD2mJt9fsCf / scenecut=40 / hist-scenecut=0 / radl=0 / no-splice / no-intra-refresh / ctu=32 / min-cu-size=8 / no-rect / no-amp / max-tu-size=32 / tu-inter-depth=4 / tu-intra-depth=4 / limit-tu=0 / rdoq-level=2 / dynamic-rd=0.00 / no-ssim-rd / signhide / no-tskip / nr-intra=0 / nr-inter=0 / no-constrained-intra / strong-intra-smoothing / max-merge=5 / limit-refs=0 / no-limit-modes / me=3 / subme=7 / merange=57 / temporal-mvp / no-frame-dup / no-hme / weightp / weightb / no-analyze-src-pics / deblock=-3:-3 / no-sao / no-sao-non-deblock / rd=4 / selective-sao=0 / no-early-skip / no-rskip / no-fast-intra / no-tskip-fast / no-cu-lossless / b-intra / no-splitrd-skip / rdpenalty=0 / psy-rd=1.00 / psy-rdoq=1.00 / no-rd-refine / no-lossless / cbqpoffs=0 / crqpoffs=0 / rc=crf / crf=21.5 / qcomp=0.60 / qpstep=4 / stats-write=0 / stats-read=0 / vbv-maxrate=160000 / vbv-bufsize=160000 / vbv-init=0.9 / min-vbv-fullness=50.0 / max-vbv-fullness=80.0 / crf-max=0.0 / crf-min=0.0 / ipratio=1.30 / pbratio=1.20 / aq-mode=1 / aq-strength=1.00 / no-cutree / zone-count=0 / no-strict-cbr / qg-size=32 / no-rc-grain / qpmax=69 / qpmin=0 / no-const-vbv / sar=0 / overscan=0 / videoformat=5 / range=0 / colorprim=1 / transfer=1 / colormatrix=1 / chromaloc=0 / display-window=0 / cll=0,0 / min-luma=0 / max-luma=1023 / log2-max-poc-lsb=8 / vui-timing-info / vui-hrd-info / slices=1 / no-opt-qp-pps / no-opt-ref-list-length-pps / no-multi-pass-opt-rps / scenecut-bias=0.05 / hist-threshold=0.03 / no-opt-cu-delta-qp / no-aq-motion / no-hdr10 / no-hdr10-opt / no-dhdr10-opt / no-idr-recovery-sei / analysis-reuse-level=0 / analysis-save-reuse-level=0 / analysis-load-reuse-level=0 / scale-factor=0 / refine-intra=0 / refine-inter=0 / refine-mv=1 / refine-ctu-distortion=0 / no-limit-sao / ctu-info=0 / no-lowpass-dct / refine-analysis-type=0 / copy-pic=1 / max-ausize-factor=1.0 / no-dynamic-refine / no-single-sei / no-hevc-aq / no-svt / no-field / qp-adaptation-range=1.00 / no-scenecut-aware-qpconformance-window-offsets / right=0 / bottom=0 / NTM4NzU= / decoder-max-rate=0 / no-vbv-live-multi-pass
  34. Default                                  : Yes
  35. Forced                                   : No
  36. Color range                              : Limited
  37. Color primaries                          : BT.709
  38. Transfer characteristics                 : BT.709
  39. Matrix coefficients                      : BT.709
  40. Audio
  41. ID                                       : 4
  42. Format                                   : AC-3
  43. Format/Info                              : Audio Coding 3
  44. Commercial name                          : Dolby Digital
  45. Codec ID                                 : A_AC3
  46. Duration                                 : 1 h 37 min
  47. Bit rate mode                            : Constant
  48. Bit rate                                 : 640 kb/s
  49. Channel(s)                               : 6 channels
  50. Channel layout                           : L R C LFE Ls Rs
  51. Sampling rate                            : 48.0 kHz
  52. Frame rate                               : 31.250 FPS (1536 SPF)
  53. Compression mode                         : Lossy
  54. Stream size                              : 445 MiB (8%)
  55. Language                                 : English
  56. Service kind                             : Complete Main
  57. Default                                  : Yes
  58. Forced                                   : No
  59. Text #1
  60. ID                                       : 1
  61. ID in the original source medium         : 4609 (0x1201)
  62. Format                                   : PGS
  63. Muxing mode                              : zlib
  64. Codec ID                                 : S_HDMV/PGS
  65. Codec ID/Info                            : Picture based subtitle format used on BDs/HD-DVDs
  66. Duration                                 : 1 h 28 min
  67. Bit rate                                 : 16.9 kb/s
  68. Count of elements                        : 1366
  69. Stream size                              : 10.6 MiB (0%)
  70. Title                                    : ger
  71. Language                                 : German
  72. Default                                  : No
  73. Forced                                   : No
  74. Original source medium                   : Blu-ray
  75. Text #2
  76. ID                                       : 2
  77. ID in the original source medium         : 4611 (0x1203)
  78. Format                                   : PGS
  79. Muxing mode                              : zlib
  80. Codec ID                                 : S_HDMV/PGS
  81. Codec ID/Info                            : Picture based subtitle format used on BDs/HD-DVDs
  82. Duration                                 : 1 h 36 min
  83. Bit rate                                 : 13.9 kb/s
  84. Count of elements                        : 1808
  85. Stream size                              : 9.64 MiB (0%)
  86. Title                                    : chs
  87. Language                                 : Chinese
  88. Default                                  : Yes
  89. Forced                                   : No
  90. Original source medium                   : Blu-ray
  91. Text #3
  92. ID                                       : 3
  93. ID in the original source medium         : 4612 (0x1204)
  94. Format                                   : PGS
  95. Muxing mode                              : zlib
  96. Codec ID                                 : S_HDMV/PGS
  97. Codec ID/Info                            : Picture based subtitle format used on BDs/HD-DVDs
  98. Duration                                 : 1 h 36 min
  99. Bit rate                                 : 14.4 kb/s
  100. Count of elements                        : 1808
  101. Stream size                              : 9.94 MiB (0%)
  102. Title                                    : cht
  103. Language                                 : Chinese
  104. Default                                  : No
  105. Forced                                   : No
  106. Original source medium                   : Blu-ray
  107. Menu
  108. 00:00:00.000                             : en:第 01 章
  109. 00:11:27.478                             : en:第 02 章
  110. 00:24:10.407                             : en:第 03 章
  111. 00:35:47.603                             : en:第 04 章
  112. 00:48:07.175                             : en:第 05 章
  113. 01:00:45.391                             : en:第 06 章
  114. 01:11:38.627                             : en:第 07 章
  115. 01:22:09.966                             : en:第 08 章
复制代码

















保举请利用qBittorrent,utorrent,transmission等标准BT软件下载!以获得最快速度。奉求保种!





回复

使用道具 举报

懒得打字嘛,点击右侧快捷回复 【右侧内容,后台自定义】
您需要登录后才可以回帖 登录 | 立即加入

本版积分规则

Archiver|小黑屋| 蓝光电影网 |网站地图

Copyright © 2021 Comsenz Inc. Powered by 蓝光电影网

蓝光电影网

本站内容由用户自主分享和转载自互联网,转载目的在于传递更多信息,并不代表本网赞同其观点和对其真实性负责。

如有侵权、违反国家法律政策行为,请联系我们,我们会第一时间及时清除和处理!

举报反馈邮箱:[email protected]

快速回复 返回顶部 返回列表