找回密码

蓝光电影网

查看: 48|回复: 1

[剧情] 盲女72小时[国粤多音轨/简繁英字幕].3.Days.of.a.Blind.Girl.1993.BluRay.1080p.x265.10bit.FLAC-MiniHD 8.02GB

[复制链接]
蓝光币
7
发表于 2022-7-27 02:16:24 | 显示全部楼层 |阅读模式


◎标  题 盲女72小时
◎译  名 盲女七十二小时 / 3 Days of a Blind Girl / Retribution Sight Unseen
◎片  名 盲女72小時
◎年  代 1993
◎产  地 中国香港
◎类  别 剧情 / 惊悚
◎语  言 粤语
◎上映日期 1993-05-27(中国香港)
◎IMDb评分 5.8/10 (256人评价)
◎IMDb链接 https://www.imdb.com/title/tt0104807/
◎豆瓣评分 6.4/10 (10871人评价)
◎豆瓣链接 https://movie.douban.com/subject/1424633/
◎片  长 88 分钟
◎导  演 陈荣照 Andy Chan
◎编  剧 苏文星 Man Sing So
◎演  员 叶玉卿 Veronica Yip
       黄秋生 Anthony Wong Chau-Sang
       陆剑明 Jamie Luk
       陈友 Anthony Chan
       张坚庭 Alfred Cheung
       陈果 Fruit Chan
       陈荣照 Andy Chan
       苏文星 Man Sing So
◎标  签 香港 / 黄秋生 / 惊悚 / 叶玉卿 / 盲女72小时 / 香港电影 / 悬疑 / 可骇
◎简  介
  阿香(叶玉卿 饰)从美国动完眼疾手术归来,临时落空视力三天。丈夫Jack(陈友 饰)是心脏科医生,要去澳门开一个重要钻研会,遂留妻子与家丁阿梅独安闲家。 阿梅进来买哮喘药时,奥秘男人朱森(黄秋生 饰)在后院内借机与阿香搭赸,说自己是Jack的小学同学,天真的阿香因而请他入屋坐。 朱森坐了一会就告别。天起头下雨,阿香小睡片刻就有人拍门,她以为是阿梅,却不意朱森又折了返来,说是叫不到出租车。 阿香因而让他换上自己丈夫的清洁衣服,朱森告诉阿香自己是印刷工,与妻子豪情原本很好,却不知为什么从某个日子起头妻子起头不让他碰。气急废弛的他越说越冲动,阿香感应惧怕,请他分开。忸捏的朱森再次告别。 盲阿香试探着到浴室洗澡,却不意朱森正在那里等着她……
  1. ##### MediaInfo ######
  2. General
  3. Unique ID                                : 33579231600707321629544438532834956563 (0x19431FF0983510F9FCF1A28D99FD9513)
  4. Complete name                            : 3.Days.of.a.Blind.Girl.1993.BluRay.1080p.x265.10bit.FLAC-MiniHD.mkv
  5. Format                                   : Matroska
  6. Format version                           : Version 4
  7. File size                                : 8.02 GiB
  8. Duration                                 : 1 h 28 min
  9. Overall bit rate mode                    : Variable
  10. Overall bit rate                         : 13.0 Mb/s
  11. Movie name                               : 3 Days of a Blind Girl - Blu-ray?
  12. Encoded date                             : UTC 2021-01-07 11:24:13
  13. Writing application                      : mkvmerge v51.0.0 ('I Wish') 64-bit
  14. Writing library                          : libebml v1.4.0 + libmatroska v1.6.2
  15. Cover                                    : Yes
  16. Attachments                              : cover.jpg
  17. Video
  18. ID                                       : 1
  19. Format                                   : HEVC
  20. Format/Info                              : High Efficiency Video Coding
  21. Format profile                           : Main [email protected]@High
  22. Codec ID                                 : V_MPEGH/ISO/HEVC
  23. Duration                                 : 1 h 28 min
  24. Bit rate                                 : 12.2 Mb/s
  25. Width                                    : 1 920 pixels
  26. Height                                   : 1 038 pixels
  27. Display aspect ratio                     : 1.85:1
  28. Frame rate mode                          : Constant
  29. Frame rate                               : 24.000 FPS
  30. Color space                              : YUV
  31. Chroma subsampling                       : 4:2:0
  32. Bit depth                                : 10 bits
  33. Bits/(Pixel*Frame)                       : 0.255
  34. Stream size                              : 7.51 GiB (94%)
  35. Writing library                          : x265 3.4+33-606265ac7:[Windows][MSVC 1928][64 bit] 10bit
  36. Encoding settings                        : cpuid=538751049583 / frame-threads=5 / numa-pools=20,20,20,20 / wpp / pmode / no-pme / no-psnr / no-ssim / log-level=2 / input-csp=1 / input-res=1920x1038 / interlace=0 / total-frames=127144 / level-idc=0 / high-tier=1 / uhd-bd=0 / ref=4 / no-allow-non-conformance / no-repeat-headers / annexb / no-aud / no-hrd / info / hash=0 / no-temporal-layers / no-open-gop / min-keyint=1 / keyint=250 / gop-lookahead=0 / bframes=6 / b-adapt=2 / b-pyramid / bframe-bias=0 / rc-lookahead=80 / lookahead-slices=0 / NTM4NzU=uuDQuD2mJt9fsCf / scenecut=40 / hist-scenecut=0 / radl=0 / no-splice / no-intra-refresh / ctu=32 / min-cu-size=8 / no-rect / no-amp / max-tu-size=32 / tu-inter-depth=4 / tu-intra-depth=4 / limit-tu=0 / rdoq-level=2 / dynamic-rd=0.00 / no-ssim-rd / signhide / tskip / nr-intra=0 / nr-inter=0 / no-constrained-intra / strong-intra-smoothing / max-merge=5 / limit-refs=0 / no-limit-modes / me=3 / subme=7 / merange=44 / temporal-mvp / no-frame-dup / no-hme / weightp / weightb / no-analyze-src-pics / deblock=-3:-3 / no-sao / no-sao-non-deblock / rd=4 / selective-sao=0 / no-early-skip / no-rskip / no-fast-intra / no-tskip-fast / no-cu-lossless / b-intra / no-splitrd-skip / rdpenalty=0 / psy-rd=1.50 / psy-rdoq=1.00 / no-rd-refine / no-lossless / cbqpoffs=-2 / crqpoffs=-2 / rc=crf / crf=21.0 / qcomp=0.65 / qpstep=4 / stats-write=0 / stats-read=0 / vbv-maxrate=160000 / vbv-bufsize=160000 / vbv-init=0.9 / min-vbv-fullness=50.0 / max-vbv-fullness=80.0 / crf-max=0.0 / crf-min=0.0 / ipratio=1.30 / pbratio=1.20 / aq-mode=2 / aq-strength=0.90 / no-cutree / zone-count=0 / no-strict-cbr / qg-size=8 / no-rc-grain / qpmax=69 / qpmin=0 / no-const-vbv / sar=0 / overscan=0 / videoformat=5 / range=0 / colorprim=1 / transfer=1 / colormatrix=1 / chromaloc=0 / display-window=0 / cll=0,0 / min-luma=0 / max-luma=1023 / log2-max-poc-lsb=8 / vui-timing-info / vui-hrd-info / slices=1 / no-opt-qp-pps / no-opt-ref-list-length-pps / no-multi-pass-opt-rps / scenecut-bias=0.05 / hist-threshold=0.03 / no-opt-cu-delta-qp / no-aq-motion / no-hdr10 / no-hdr10-opt / no-dhdr10-opt / no-idr-recovery-sei / analysis-reuse-level=0 / analysis-save-reuse-level=0 / analysis-load-reuse-level=0 / scale-factor=0 / refine-intra=0 / refine-inter=0 / refine-mv=1 / refine-ctu-distortion=0 / no-limit-sao / ctu-info=0 / no-lowpass-dct / refine-analysis-type=0 / copy-pic=1 / max-ausize-factor=1.0 / no-dynamic-refine / no-single-sei / no-hevc-aq / no-svt / no-field / qp-adaptation-range=1.00 / scenecut-aware-qp=0conformance-window-offsets / right=0 / bottom=0 / NTM4NzU= / decoder-max-rate=0 / no-vbv-live-multi-pass
  37. Default                                  : Yes
  38. Forced                                   : No
  39. Color range                              : Limited
  40. Color primaries                          : BT.709
  41. Transfer characteristics                 : BT.709
  42. Matrix coefficients                      : BT.709
  43. Audio #1
  44. ID                                       : 2
  45. Format                                   : FLAC
  46. Format/Info                              : Free Lossless Audio Codec
  47. Codec ID                                 : A_FLAC
  48. Duration                                 : 1 h 28 min
  49. Bit rate mode                            : Variable
  50. Bit rate                                 : 395 kb/s
  51. Channel(s)                               : 2 channels
  52. Channel layout                           : L R
  53. Sampling rate                            : 48.0 kHz
  54. Frame rate                               : 11.719 FPS (4096 SPF)
  55. Bit depth                                : 16 bits
  56. Compression mode                         : Lossless
  57. Stream size                              : 249 MiB (3%)
  58. Title                                    : Cantonese
  59. Writing library                          : libFLAC 1.2.1 (UTC 2007-09-17)
  60. Language                                 : Chinese
  61. Default                                  : Yes
  62. Forced                                   : No
  63. Audio #2
  64. ID                                       : 3
  65. Format                                   : FLAC
  66. Format/Info                              : Free Lossless Audio Codec
  67. Codec ID                                 : A_FLAC
  68. Duration                                 : 1 h 28 min
  69. Bit rate mode                            : Variable
  70. Bit rate                                 : 400 kb/s
  71. Channel(s)                               : 2 channels
  72. Channel layout                           : L R
  73. Sampling rate                            : 48.0 kHz
  74. Frame rate                               : 11.719 FPS (4096 SPF)
  75. Bit depth                                : 16 bits
  76. Compression mode                         : Lossless
  77. Stream size                              : 253 MiB (3%)
  78. Title                                    : Mandarin
  79. Writing library                          : libFLAC 1.2.1 (UTC 2007-09-17)
  80. Language                                 : Chinese
  81. Default                                  : No
  82. Forced                                   : No
  83. Text #1
  84. ID                                       : 4
  85. ID in the original source medium         : 4609 (0x1201)
  86. Format                                   : PGS
  87. Muxing mode                              : zlib
  88. Codec ID                                 : S_HDMV/PGS
  89. Codec ID/Info                            : Picture based subtitle format used on BDs/HD-DVDs
  90. Duration                                 : 1 h 24 min
  91. Bit rate                                 : 19.9 kb/s
  92. Count of elements                        : 1236
  93. Stream size                              : 12.0 MiB (0%)
  94. Title                                    : CHS
  95. Language                                 : Chinese
  96. Default                                  : Yes
  97. Forced                                   : No
  98. Original source medium                   : Blu-ray
  99. Text #2
  100. ID                                       : 5
  101. ID in the original source medium         : 4608 (0x1200)
  102. Format                                   : PGS
  103. Muxing mode                              : zlib
  104. Codec ID                                 : S_HDMV/PGS
  105. Codec ID/Info                            : Picture based subtitle format used on BDs/HD-DVDs
  106. Duration                                 : 1 h 24 min
  107. Bit rate                                 : 21.5 kb/s
  108. Count of elements                        : 1236
  109. Stream size                              : 12.9 MiB (0%)
  110. Title                                    : CHT
  111. Language                                 : Chinese
  112. Default                                  : No
  113. Forced                                   : No
  114. Original source medium                   : Blu-ray
  115. Text #3
  116. ID                                       : 6
  117. ID in the original source medium         : 4610 (0x1202)
  118. Format                                   : PGS
  119. Muxing mode                              : zlib
  120. Codec ID                                 : S_HDMV/PGS
  121. Codec ID/Info                            : Picture based subtitle format used on BDs/HD-DVDs
  122. Duration                                 : 1 h 24 min
  123. Bit rate                                 : 20.7 kb/s
  124. Count of elements                        : 1236
  125. Stream size                              : 12.5 MiB (0%)
  126. Language                                 : English
  127. Default                                  : No
  128. Forced                                   : No
  129. Original source medium                   : Blu-ray
  130. Menu
  131. 00:00:00.000                             : en:第 01 章
  132. 00:07:18.291                             : en:第 02 章
  133. 00:14:07.083                             : en:第 03 章
  134. 00:21:31.291                             : en:第 04 章
  135. 00:28:05.208                             : en:第 05 章
  136. 00:35:47.166                             : en:第 06 章
  137. 00:47:24.916                             : en:第 07 章
  138. 00:56:09.208                             : en:第 08 章
  139. 01:02:20.833                             : en:第 09 章
  140. 01:09:50.000                             : en:第 10 章
  141. 01:17:24.708                             : en:第 11 章
  142. 01:21:33.500                             : en:第 12 章
复制代码



保举请利用qBittorrent,utorrent,transmission等标准BT软件下载!以获得最快速度。奉求保种!





回复

使用道具 举报

蓝光币
162
发表于 2022-7-27 21:59:54 | 显示全部楼层
楼主发贴辛苦了,谢谢楼主分享!我觉得蓝光电影网是注册对了!
回复 支持 反对

使用道具 举报

懒得打字嘛,点击右侧快捷回复 【右侧内容,后台自定义】
您需要登录后才可以回帖 登录 | 立即加入

本版积分规则

Archiver|小黑屋| 蓝光电影网 |网站地图

Copyright © 2021 Comsenz Inc. Powered by 蓝光电影网

蓝光电影网

本站内容由用户自主分享和转载自互联网,转载目的在于传递更多信息,并不代表本网赞同其观点和对其真实性负责。

如有侵权、违反国家法律政策行为,请联系我们,我们会第一时间及时清除和处理!

举报反馈邮箱:[email protected]

快速回复 返回顶部 返回列表