找回密码

蓝光电影网

查看: 43|回复: 0

[剧情] 空房间[简繁英字幕].3.Iron.2004.1080p.Bluray.x265.10bit.DDP.5.1-MiniHD 5.83GB

[复制链接]
蓝光币
7
发表于 2022-7-27 02:16:23 | 显示全部楼层 |阅读模式


◎标  题 空屋间
◎译  名 感官乐园(港) / 空屋情人(台) / 空屋子 / 空屋 / 3-Iron / Bin-jip
◎片  名 빈집
◎年  代 2004
◎产  地 韩国
◎类  别 剧情 / 恋爱 / 犯罪
◎语  言 韩语
◎上映日期 2004-09-07(威尼斯电影节) / 2004-10-15(韩国)
◎IMDb评分 8/10 (53494人评价)
◎IMDb链接 https://www.imdb.com/title/tt0423866/
◎豆瓣评分 8.0/10 (152015人评价)
◎豆瓣链接 https://movie.douban.com/subject/1308833/
◎片  长 88分钟
◎导  演 金基德 Ki-duk Kim
◎编  剧 金基德 Ki-duk Kim
◎演  员 在熙 Hee Jae
       李成延 Seung-yeon Lee
       李忠秀 Jong-su Lee
       金基德 Ki-duk Kim
       金基德 Ki-duk Kim
◎标  签 金基德 / 韩国 / 韩国电影 / 文艺 / 恋爱 / 空屋间 / 情色 / 剧情
◎简  介
  泰石(在熙饰)是个无所作为的年轻人,他天天骑着摩托车挨家发传单,将它塞入钥匙孔中。假如过几天传单还没有被人拿掉,泰石就会撬开锁进去小住一段时候,在那洗澡做饭摄影。作为交换,他会帮仆人家做些家务、打理房间。                                    
                                一次,他在一所空屋子里碰见了一个被丈夫施虐熬煎过的女人善华(李丞涓饰)。她满身青肿,眼神里吐露着哀怨。逃走后的泰石惦念着善华,再返回她家时,恰好碰上善华的丈夫在凌虐她,他立即脱手,带走了她。                                    
                                后来,他们两小我规复到之前的奥秘生活,结伴一路寻觅空屋间,虽没有言语交换,却相互默契。一次他们进入陌生人房间时,发现一具老人的尸身,他们为他办了一个认真的葬礼后就在这件屋子欢畅的住下。直到一天老人的儿子找上门来,他们被看成杀人怀疑犯带走。泰石锒铛入狱,善华被老公带走。可是故事并没有在这里竣事。
  1. ##### MediaInfo ######
  2. General
  3. Unique ID                                : 44081091711664956149204774369710791604 (0x2129B59E929D35A9C1FC2F60C86B5BB4)
  4. Complete name                            : 3.Iron.2004.1080p.Bluray.x265.10bit.DDP.5.1-MiniHD.mkv
  5. Format                                   : Matroska
  6. Format version                           : Version 4
  7. File size                                : 5.83 GiB
  8. Duration                                 : 1 h 27 min
  9. Overall bit rate                         : 9 495 kb/s
  10. Encoded date                             : UTC 2021-01-18 06:06:03
  11. Writing application                      : mkvmerge v51.0.0 ('I Wish') 64-bit
  12. Writing library                          : libebml v1.4.0 + libmatroska v1.6.2
  13. Video
  14. ID                                       : 1
  15. Format                                   : HEVC
  16. Format/Info                              : High Efficiency Video Coding
  17. Format profile                           : Main [email protected]@High
  18. Codec ID                                 : V_MPEGH/ISO/HEVC
  19. Duration                                 : 1 h 27 min
  20. Bit rate                                 : 8 457 kb/s
  21. Width                                    : 1 916 pixels
  22. Height                                   : 1 054 pixels
  23. Display aspect ratio                     : 16:9
  24. Frame rate mode                          : Constant
  25. Frame rate                               : 23.976 (24000/1001/53875) FPS
  26. Color space                              : YUV
  27. Chroma subsampling                       : 4:2:0
  28. Bit depth                                : 10 bits
  29. Bits/(Pixel*Frame)                       : 0.175
  30. Stream size                              : 5.19 GiB (89%)
  31. Writing library                          : x265 3.4+33-606265ac7:[Windows][MSVC 1928][64 bit] 10bit
  32. Encoding settings                        : cpuid=538751049583 / frame-threads=5 / numa-pools=20,20,20,20 / wpp / pmode / no-pme / no-psnr / no-ssim / log-level=2 / input-csp=1 / input-res=1916x1054 / interlace=0 / total-frames=126367 / level-idc=0 / high-tier=1 / uhd-bd=0 / ref=4 / no-allow-non-conformance / no-repeat-headers / annexb / no-aud / no-hrd / info / hash=0 / no-temporal-layers / no-open-gop / min-keyint=1 / keyint=250 / gop-lookahead=0 / bframes=6 / b-adapt=2 / b-pyramid / bframe-bias=0 / rc-lookahead=80 / lookahead-slices=0 / NTM4NzU=uuDQuD2mJt9fsCf / scenecut=40 / hist-scenecut=0 / radl=0 / no-splice / no-intra-refresh / ctu=32 / min-cu-size=8 / no-rect / no-amp / max-tu-size=32 / tu-inter-depth=4 / tu-intra-depth=4 / limit-tu=0 / rdoq-level=2 / dynamic-rd=0.00 / no-ssim-rd / signhide / tskip / nr-intra=0 / nr-inter=0 / no-constrained-intra / strong-intra-smoothing / max-merge=5 / limit-refs=0 / no-limit-modes / me=3 / subme=7 / merange=44 / temporal-mvp / no-frame-dup / no-hme / weightp / weightb / no-analyze-src-pics / deblock=-3:-3 / no-sao / no-sao-non-deblock / rd=4 / selective-sao=0 / no-early-skip / no-rskip / no-fast-intra / no-tskip-fast / no-cu-lossless / b-intra / no-splitrd-skip / rdpenalty=0 / psy-rd=1.50 / psy-rdoq=1.00 / no-rd-refine / no-lossless / cbqpoffs=-2 / crqpoffs=-2 / rc=crf / crf=21.0 / qcomp=0.65 / qpstep=4 / stats-write=0 / stats-read=0 / vbv-maxrate=160000 / vbv-bufsize=160000 / vbv-init=0.9 / min-vbv-fullness=50.0 / max-vbv-fullness=80.0 / crf-max=0.0 / crf-min=0.0 / ipratio=1.30 / pbratio=1.20 / aq-mode=2 / aq-strength=0.90 / no-cutree / zone-count=0 / no-strict-cbr / qg-size=8 / no-rc-grain / qpmax=69 / qpmin=0 / no-const-vbv / sar=0 / overscan=0 / videoformat=5 / range=0 / colorprim=1 / transfer=1 / colormatrix=1 / chromaloc=0 / display-window=0 / cll=0,0 / min-luma=0 / max-luma=1023 / log2-max-poc-lsb=8 / vui-timing-info / vui-hrd-info / slices=1 / no-opt-qp-pps / no-opt-ref-list-length-pps / no-multi-pass-opt-rps / scenecut-bias=0.05 / hist-threshold=0.03 / no-opt-cu-delta-qp / no-aq-motion / no-hdr10 / no-hdr10-opt / no-dhdr10-opt / no-idr-recovery-sei / analysis-reuse-level=0 / analysis-save-reuse-level=0 / analysis-load-reuse-level=0 / scale-factor=0 / refine-intra=0 / refine-inter=0 / refine-mv=1 / refine-ctu-distortion=0 / no-limit-sao / ctu-info=0 / no-lowpass-dct / refine-analysis-type=0 / copy-pic=1 / max-ausize-factor=1.0 / no-dynamic-refine / no-single-sei / no-hevc-aq / no-svt / no-field / qp-adaptation-range=1.00 / scenecut-aware-qp=0conformance-window-offsets / right=0 / bottom=0 / NTM4NzU= / decoder-max-rate=0 / no-vbv-live-multi-pass
  33. Default                                  : Yes
  34. Forced                                   : No
  35. Color range                              : Limited
  36. Color primaries                          : BT.709
  37. Transfer characteristics                 : BT.709
  38. Matrix coefficients                      : BT.709
  39. Audio
  40. ID                                       : 2
  41. Format                                   : E-AC-3
  42. Format/Info                              : Enhanced AC-3
  43. Commercial name                          : Dolby Digital Plus
  44. Codec ID                                 : A_EAC3
  45. Duration                                 : 1 h 27 min
  46. Bit rate mode                            : Constant
  47. Bit rate                                 : 1 023 kb/s
  48. Channel(s)                               : 6 channels
  49. Channel layout                           : L R C LFE Ls Rs
  50. Sampling rate                            : 48.0 kHz
  51. Frame rate                               : 93.750 FPS (512 SPF)
  52. Compression mode                         : Lossy
  53. Stream size                              : 643 MiB (11%)
  54. Language                                 : Korean
  55. Service kind                             : Complete Main
  56. Default                                  : Yes
  57. Forced                                   : No
  58. Text #1
  59. ID                                       : 3
  60. ID in the original source medium         : 4609 (0x1201)
  61. Format                                   : PGS
  62. Muxing mode                              : zlib
  63. Codec ID                                 : S_HDMV/PGS
  64. Codec ID/Info                            : Picture based subtitle format used on BDs/HD-DVDs
  65. Duration                                 : 1 h 21 min
  66. Bit rate                                 : 7 904 b/s
  67. Count of elements                        : 584
  68. Stream size                              : 4.58 MiB (0%)
  69. Title                                    : CHS
  70. Language                                 : Chinese
  71. Default                                  : Yes
  72. Forced                                   : No
  73. Original source medium                   : Blu-ray
  74. Text #2
  75. ID                                       : 4
  76. ID in the original source medium         : 4608 (0x1200)
  77. Format                                   : PGS
  78. Muxing mode                              : zlib
  79. Codec ID                                 : S_HDMV/PGS
  80. Codec ID/Info                            : Picture based subtitle format used on BDs/HD-DVDs
  81. Duration                                 : 1 h 21 min
  82. Bit rate                                 : 8 100 b/s
  83. Count of elements                        : 584
  84. Stream size                              : 4.69 MiB (0%)
  85. Title                                    : CHT
  86. Language                                 : Chinese
  87. Default                                  : No
  88. Forced                                   : No
  89. Original source medium                   : Blu-ray
  90. Text #3
  91. ID                                       : 5
  92. ID in the original source medium         : 4610 (0x1202)
  93. Format                                   : PGS
  94. Muxing mode                              : zlib
  95. Codec ID                                 : S_HDMV/PGS
  96. Codec ID/Info                            : Picture based subtitle format used on BDs/HD-DVDs
  97. Duration                                 : 1 h 19 min
  98. Bit rate                                 : 8 691 b/s
  99. Count of elements                        : 580
  100. Stream size                              : 4.92 MiB (0%)
  101. Language                                 : English
  102. Default                                  : No
  103. Forced                                   : No
  104. Original source medium                   : Blu-ray
  105. Menu
  106. 00:00:00.000                             : en:第 01 章
  107. 00:15:01.525                             : en:第 02 章
  108. 00:30:02.425                             : en:第 03 章
  109. 00:45:03.325                             : en:第 04 章
  110. 01:00:03.600                             : en:第 05 章
  111. 01:15:07.002                             : en:第 06 章
复制代码
















保举请利用qBittorrent,utorrent,transmission等标准BT软件下载!以获得最快速度。奉求保种!





回复

使用道具 举报

懒得打字嘛,点击右侧快捷回复 【右侧内容,后台自定义】
您需要登录后才可以回帖 登录 | 立即加入

本版积分规则

Archiver|小黑屋| 蓝光电影网 |网站地图

Copyright © 2021 Comsenz Inc. Powered by 蓝光电影网

蓝光电影网

本站内容由用户自主分享和转载自互联网,转载目的在于传递更多信息,并不代表本网赞同其观点和对其真实性负责。

如有侵权、违反国家法律政策行为,请联系我们,我们会第一时间及时清除和处理!

举报反馈邮箱:[email protected]

快速回复 返回顶部 返回列表