找回密码

蓝光电影网

查看: 38|回复: 0

[剧情] 一袋弹子[简体字幕].A.Bag.of.Marbles.2017.Bluray.1080p.x265.10bit-MiniHD 6.08GB

[复制链接]
蓝光币
7
发表于 2022-7-27 02:16:21 | 显示全部楼层 |阅读模式


◎标  题 一袋弹子
◎译  名 一袋弹珠 / 弹子袋 / A Bag Of Marbles
◎片  名 Un sac de billes
◎年  代 2017
◎产  地 法国 / 加拿大 / 捷克
◎类  别 剧情 / 历史 / 战争
◎语  言 法语 / 德语 / 意第绪语 / 俄语
◎上映日期 2017-01-18(法国)
◎IMDb评分 7.3/10 (5573人评价)
◎IMDb链接 https://www.imdb.com/title/tt5091612/
◎豆瓣评分 8.3/10 (12180人评价)
◎豆瓣链接 https://movie.douban.com/subject/26936217/
◎片  长 110分钟
◎导  演 克里斯丁·杜瓦 Christian Duguay
◎编  剧 克里斯丁·杜瓦 Christian Duguay
       伯努瓦·吉夏尔 Benoît Guichard
       乔纳森·阿鲁切 Jonathan Allouche
       亚历山德拉·盖斯马 Alexandra Geismar
       劳伦特·泽图恩 Laurent Zeitoun
       约瑟夫·约弗 Joseph Joffo
◎演  员 多里安·勒·克利奇 Dorian Le Clech
       巴蒂斯特·弗勒里埃尔 Batyste Fleurial
       帕特里克·布鲁尔 Patrick Bruel
       艾尔莎·泽贝斯坦 Elsa Zylberstein
       贝尔纳·康庞 Bernard Campan
       凯文·亚当斯 Kev Adams
       克里斯蒂昂·克拉维埃 Christian Clavier
       凯撒·东布瓦 César Domboy
       伊连·贝加拉 Ilian Bergala
       埃米尔·贝宁 Emile Berling
       乔斯琳·德斯维彻尔 Jocelyne Desverchère
       科琳·莱克勒 Coline Leclère
       伊什尼·齐科特 Etienne Chicot
       霍尔格·达姆根 Holger Daemgen
       皮尔·基维特 Pierre Kiwitt
       约瑟夫·玛勒巴 Joseph Malerba
       文森特·内梅斯 Vincent Nemeth
       罗曼·保罗 Romain Paul
       卢卡斯·普莱瑟 Lucas Prisor
       尼古拉斯·杜瓦尔·艾达索夫斯基 Nicolas Duval-Adassovsky
       阿曼德·阿玛尔 Armand Amar
◎简  介
  故事发生在第二次天下大战时代,法国被德军占据,纳粹主义在当地横行。莫里斯(巴蒂斯特·弗勒里埃尔 Batyste Fleurial 饰)和乔(多里安·勒·克利奇 Dorian Le Clech 饰)是一对生活在法国的犹太人兄弟,父亲靠经营一家剃头店赡养孩子们,虽然生活得很 辛劳,可是一家人之间的豪情很是的密切。                                    
                                德军要求每一个犹太人在外衣上缝上黄色的六角星,与此同时,社会对犹太人的忍受度也在急剧下降,兄弟两人由于他们的血缘在黉舍遭到了同学们的排挤。眼看着势头差池,父亲决议让莫里斯和乔两人先行逃往自在区出亡,自己随后就跟上,一家人在尼斯会合。就这样,两个孩子踏上了逃往的旅途。
  1. ##### MediaInfo ######
  2. General
  3. Unique ID                                : 182485052879463311584051242771879181947 (0x894957C00F8E1BDA571AC80CA6AA3E7B)
  4. Complete name                            : A.Bag.of.Marbles.2017.Bluray.1080p.x265.10bit-MiniHD.mkv
  5. Format                                   : Matroska
  6. Format version                           : Version 4
  7. File size                                : 6.08 GiB
  8. Duration                                 : 1 h 52 min
  9. Overall bit rate                         : 7 715 kb/s
  10. Movie name                               : A Bag of Marbles [2017] Bluray 1080p MNHD-FRDS
  11. Encoded date                             : UTC 2021-01-28 15:14:43
  12. Writing application                      : mkvmerge v52.0.0 ('Secret For The Mad') 64-bit
  13. Writing library                          : libebml v1.4.1 + libmatroska v1.6.2
  14. Video
  15. ID                                       : 2
  16. Format                                   : HEVC
  17. Format/Info                              : High Efficiency Video Coding
  18. Format profile                           : Main [email protected]@High
  19. Codec ID                                 : V_MPEGH/ISO/HEVC
  20. Duration                                 : 1 h 52 min
  21. Bit rate                                 : 7 053 kb/s
  22. Width                                    : 1 920 pixels
  23. Height                                   : 804 pixels
  24. Display aspect ratio                     : 2.40:1
  25. Frame rate mode                          : Constant
  26. Frame rate                               : 24.000 FPS
  27. Color space                              : YUV
  28. Chroma subsampling                       : 4:2:0
  29. Bit depth                                : 10 bits
  30. Bits/(Pixel*Frame)                       : 0.190
  31. Stream size                              : 5.56 GiB (91%)
  32. Writing library                          : x265 3.4+30-g6722fce1f:[Windows][GCC 10.2.0][64 bit] 10bit
  33. Encoding settings                        : cpuid=538751111039 / frame-threads=3 / numa-pools=8 / wpp / pmode / no-pme / no-psnr / no-ssim / log-level=2 / input-csp=1 / input-res=1920x804 / interlace=0 / total-frames=162417 / level-idc=0 / high-tier=1 / uhd-bd=0 / ref=6 / no-allow-non-conformance / no-repeat-headers / annexb / no-aud / no-hrd / info / hash=0 / no-temporal-layers / no-open-gop / min-keyint=24 / keyint=250 / gop-lookahead=0 / bframes=16 / b-adapt=2 / b-pyramid / bframe-bias=0 / rc-lookahead=100 / lookahead-slices=0 / NTM4NzU=uuDQuD2mJt9fsCf / scenecut=40 / hist-scenecut=0 / radl=0 / no-splice / no-intra-refresh / ctu=32 / min-cu-size=8 / no-rect / no-amp / max-tu-size=32 / tu-inter-depth=4 / tu-intra-depth=4 / limit-tu=0 / rdoq-level=2 / dynamic-rd=0.00 / no-ssim-rd / signhide / no-tskip / nr-intra=0 / nr-inter=0 / no-constrained-intra / strong-intra-smoothing / max-merge=5 / limit-refs=0 / no-limit-modes / me=3 / subme=7 / merange=57 / temporal-mvp / no-frame-dup / no-hme / weightp / weightb / no-analyze-src-pics / deblock=-3:-3 / no-sao / no-sao-non-deblock / rd=4 / selective-sao=0 / no-early-skip / no-rskip / no-fast-intra / no-tskip-fast / no-cu-lossless / b-intra / no-splitrd-skip / rdpenalty=0 / psy-rd=1.00 / psy-rdoq=1.00 / no-rd-refine / no-lossless / cbqpoffs=0 / crqpoffs=0 / rc=crf / crf=18.5 / qcomp=0.60 / qpstep=4 / stats-write=0 / stats-read=0 / vbv-maxrate=160000 / vbv-bufsize=160000 / vbv-init=0.9 / min-vbv-fullness=50.0 / max-vbv-fullness=80.0 / crf-max=0.0 / crf-min=0.0 / ipratio=1.30 / pbratio=1.20 / aq-mode=1 / aq-strength=1.00 / no-cutree / zone-count=0 / no-strict-cbr / qg-size=32 / no-rc-grain / qpmax=69 / qpmin=0 / no-const-vbv / sar=0 / overscan=0 / videoformat=5 / range=0 / colorprim=1 / transfer=1 / colormatrix=1 / chromaloc=0 / display-window=0 / cll=0,0 / min-luma=0 / max-luma=1023 / log2-max-poc-lsb=8 / vui-timing-info / vui-hrd-info / slices=1 / no-opt-qp-pps / no-opt-ref-list-length-pps / no-multi-pass-opt-rps / scenecut-bias=0.05 / hist-threshold=0.03 / no-opt-cu-delta-qp / no-aq-motion / no-hdr10 / no-hdr10-opt / no-dhdr10-opt / no-idr-recovery-sei / analysis-reuse-level=0 / analysis-save-reuse-level=0 / analysis-load-reuse-level=0 / scale-factor=0 / refine-intra=0 / refine-inter=0 / refine-mv=1 / refine-ctu-distortion=0 / no-limit-sao / ctu-info=0 / no-lowpass-dct / refine-analysis-type=0 / copy-pic=1 / max-ausize-factor=1.0 / no-dynamic-refine / no-single-sei / no-hevc-aq / no-svt / no-field / qp-adaptation-range=1.00 / no-scenecut-aware-qpconformance-window-offsets / right=0 / bottom=0 / NTM4NzU= / decoder-max-rate=0 / no-vbv-live-multi-pass
  34. Default                                  : Yes
  35. Forced                                   : No
  36. Color range                              : Limited
  37. Color primaries                          : BT.709
  38. Transfer characteristics                 : BT.709
  39. Matrix coefficients                      : BT.709
  40. Audio
  41. ID                                       : 1
  42. Format                                   : AC-3
  43. Format/Info                              : Audio Coding 3
  44. Commercial name                          : Dolby Digital
  45. Codec ID                                 : A_AC3
  46. Duration                                 : 1 h 52 min
  47. Bit rate mode                            : Constant
  48. Bit rate                                 : 640 kb/s
  49. Channel(s)                               : 6 channels
  50. Channel layout                           : L R C LFE Ls Rs
  51. Sampling rate                            : 48.0 kHz
  52. Frame rate                               : 31.250 FPS (1536 SPF)
  53. Compression mode                         : Lossy
  54. Stream size                              : 516 MiB (8%)
  55. Language                                 : French
  56. Service kind                             : Complete Main
  57. Default                                  : Yes
  58. Forced                                   : No
  59. Text
  60. ID                                       : 3
  61. Format                                   : PGS
  62. Muxing mode                              : zlib
  63. Codec ID                                 : S_HDMV/PGS
  64. Codec ID/Info                            : Picture based subtitle format used on BDs/HD-DVDs
  65. Duration                                 : 1 h 47 min
  66. Bit rate                                 : 33.6 kb/s
  67. Count of elements                        : 3624
  68. Stream size                              : 25.8 MiB (0%)
  69. Title                                    : chs
  70. Language                                 : Chinese
  71. Default                                  : Yes
  72. Forced                                   : No
  73. Menu
  74. 00:00:00.000                             : en:第 01 章
  75. 00:11:05.208                             : en:第 02 章
  76. 00:19:00.250                             : en:第 03 章
  77. 00:28:00.000                             : en:第 04 章
  78. 00:34:16.750                             : en:第 05 章
  79. 00:48:06.958                             : en:第 06 章
  80. 00:59:57.791                             : en:第 07 章
  81. 01:14:34.833                             : en:第 08 章
  82. 01:22:06.666                             : en:第 09 章
  83. 01:29:58.500                             : en:第 10 章
  84. 01:36:37.375                             : en:第 11 章
  85. 01:43:01.708                             : en:第 12 章
复制代码

















保举请利用qBittorrent,utorrent,transmission等标准BT软件下载!以获得最快速度。奉求保种!





回复

使用道具 举报

懒得打字嘛,点击右侧快捷回复 【右侧内容,后台自定义】
您需要登录后才可以回帖 登录 | 立即加入

本版积分规则

Archiver|小黑屋| 蓝光电影网 |网站地图

Copyright © 2021 Comsenz Inc. Powered by 蓝光电影网

蓝光电影网

本站内容由用户自主分享和转载自互联网,转载目的在于传递更多信息,并不代表本网赞同其观点和对其真实性负责。

如有侵权、违反国家法律政策行为,请联系我们,我们会第一时间及时清除和处理!

举报反馈邮箱:[email protected]

快速回复 返回顶部 返回列表