找回密码

蓝光电影网

查看: 34|回复: 0

[剧情] 捍卫机密[简繁英双语字幕].Johnny.Mnemonic.1995.BluRay.1080p.TrueHD.Atmos.7.1.x265.10bit-ALT 10.24GB

[复制链接]
蓝光币
7
发表于 2022-7-27 02:16:34 | 显示全部楼层 |阅读模式


◎标  题 保卫机密
◎译  名 很是特务 / 约翰尼记忆术 / 很是使命
◎片  名 Johnny Mnemonic
◎年  代 1995
◎产  地 加拿大 / 美国
◎类  别 行动 / 科幻
◎语  言 英语 / 日语
◎上映日期 1995-04-15
◎IMDb评分 5.7/10 (69629人评价)
◎IMDb链接 https://www.imdb.com/title/tt0113481/
◎豆瓣评分 6.3/10 (2316人评价)
◎豆瓣链接 https://movie.douban.com/subject/1298111/
◎片  长 Japan: 107 分钟(video version) / USA: 96 分钟
◎导  演 Robert Longo Robert Longo
◎编  剧 威廉·吉布森 William Gibson
◎演  员 基努·里维斯 Keanu Reeves
       迪娜·迈耶 Dina Meyer
       北野武 Takeshi Kitano
       亨利·罗林斯 Henry Rollins
       巴巴拉·苏科瓦 Barbara Sukowa
       乌多·基尔 Udo Kier
       唐·弗朗克斯 Don Francks
       范·弗洛伦斯 Von Flores
       艾斯-T Ice-T
       道格拉斯·奥基费 Douglas O'Keeffe
       杜夫·龙格尔 Dolph Lundgren
       Coyote Shivers Coyote Shivers
       贾米·埃曼 Jamie Elman
       翠茜·特威德 Tracy Tweed
◎标  签 科幻 / 美国 / KeanuReeves / 北野武 / 行动 / 1995 / 基鲁·李维斯 / 美国电影
◎简  介
    公元2021年,材料除了透过电脑输送外,还可操纵人脑运输。专业运输员尊尼为了输送更多材料,不惜洗去自己的记忆。一次使命中,尊尼被客户输入过量材料,若他不在二十小时内找到输出密码,他便会倒毙。另一方面,日本团体为了夺取他脑内的材料,也对他展开一场大追杀。
  1. ##### MediaInfo ######
  2. General
  3. Unique ID                                : 89973327915555380385087163326015856221 (0x43B03B8E7BBF863242A439218281DE5D)
  4. Complete name                            : Johnny.Mnemonic.1995.BluRay.1080p.TrueHD.Atmos.7.1.x265.10bit-ALT.mkv
  5. Format                                   : Matroska
  6. Format version                           : Version 4
  7. File size                                : 10.2 GiB
  8. Duration                                 : 1 h 37 min
  9. Overall bit rate mode                    : Variable
  10. Overall bit rate                         : 15.1 Mb/s
  11. Encoded date                             : UTC 2022-07-25 11:05:24
  12. Writing application                      : mkvmerge v49.0.0 ('Sick Of Losing Soulmates') 64-bit
  13. Writing library                          : libebml v1.4.0 + libmatroska v1.6.1
  14. Video
  15. ID                                       : 1
  16. Format                                   : HEVC
  17. Format/Info                              : High Efficiency Video Coding
  18. Format profile                           : Main [email protected]@High
  19. Codec ID                                 : V_MPEGH/ISO/HEVC
  20. Duration                                 : 1 h 36 min
  21. Bit rate                                 : 10.0 Mb/s
  22. Width                                    : 1 920 pixels
  23. Height                                   : 1 040 pixels
  24. Display aspect ratio                     : 1.85:1
  25. Frame rate mode                          : Constant
  26. Frame rate                               : 23.976 (24000/1001/53875) FPS
  27. Color space                              : YUV
  28. Chroma subsampling                       : 4:2:0
  29. Bit depth                                : 10 bits
  30. Bits/(Pixel*Frame)                       : 0.209
  31. Stream size                              : 6.77 GiB (66%)
  32. Title                                    : HEVC, [email protected]@High, 24/1.001 fps @ 10020 kbps
  33. Writing library                          : x265 3.5+36-1f2c8da77:[Windows][GCC 11.2.0][64 bit] 10bit
  34. Encoding settings                        : cpuid=538751111039 / frame-threads=4 / numa-pools=16 / wpp / no-pmode / no-pme / no-psnr / no-ssim / log-level=2 / input-csp=1 / input-res=1920x1040 / interlace=0 / total-frames=139200 / level-idc=51 / high-tier=1 / uhd-bd=0 / ref=5 / no-allow-non-conformance / no-repeat-headers / annexb / no-aud / no-eob / no-eos / no-hrd / info / hash=0 / no-temporal-layers / open-gop / min-keyint=24 / keyint=240 / gop-lookahead=0 / bframes=6 / b-adapt=2 / b-pyramid / bframe-bias=0 / rc-lookahead=40 / lookahead-slices=0 / NTM4NzU=uuDQuD2mJt9fsCf / scenecut=40 / no-hist-scenecut / radl=0 / no-splice / no-intra-refresh / ctu=32 / min-cu-size=8 / no-rect / no-amp / max-tu-size=32 / tu-inter-depth=3 / tu-intra-depth=3 / limit-tu=4 / rdoq-level=2 / dynamic-rd=0.00 / no-ssim-rd / signhide / no-tskip / nr-intra=0 / nr-inter=0 / no-constrained-intra / no-strong-intra-smoothing / max-merge=4 / limit-refs=1 / limit-modes / me=3 / subme=4 / merange=25 / temporal-mvp / no-frame-dup / no-hme / weightp / weightb / no-analyze-src-pics / deblock=-3:-3 / no-sao / no-sao-non-deblock / rd=6 / selective-sao=0 / no-early-skip / rskip / no-fast-intra / no-tskip-fast / no-cu-lossless / b-intra / no-splitrd-skip / rdpenalty=0 / psy-rd=2.00 / psy-rdoq=1.00 / no-rd-refine / no-lossless / cbqpoffs=-2 / crqpoffs=-2 / rc=crf / crf=17.0 / qcomp=0.65 / qpstep=4 / stats-write=0 / stats-read=0 / vbv-maxrate=80000 / vbv-bufsize=80000 / vbv-init=0.9 / min-vbv-fullness=50.0 / max-vbv-fullness=80.0 / crf-max=0.0 / crf-min=0.0 / ipratio=1.40 / pbratio=1.30 / aq-mode=2 / aq-strength=0.85 / cutree / zone-count=0 / no-strict-cbr / qg-size=32 / no-rc-grain / qpmax=69 / qpmin=0 / no-const-vbv / sar=1 / overscan=0 / videoformat=5 / range=0 / colorprim=1 / transfer=1 / colormatrix=1 / chromaloc=0 / display-window=0 / cll=0,0 / min-luma=0 / max-luma=1023 / log2-max-poc-lsb=8 / vui-timing-info / vui-hrd-info / slices=1 / no-opt-qp-pps / no-opt-ref-list-length-pps / no-multi-pass-opt-rps / scenecut-bias=0.05 / hist-threshold=0.03 / no-opt-cu-delta-qp / no-aq-motion / no-hdr10 / no-hdr10-opt / no-dhdr10-opt / no-idr-recovery-sei / analysis-reuse-level=0 / analysis-save-reuse-level=0 / analysis-load-reuse-level=0 / scale-factor=0 / refine-intra=0 / refine-inter=0 / refine-mv=1 / refine-ctu-distortion=0 / no-limit-sao / ctu-info=0 / no-lowpass-dct / refine-analysis-type=0 / copy-pic=1 / max-ausize-factor=1.0 / no-dynamic-refine / no-single-sei / no-hevc-aq / no-svt / no-field / qp-adaptation-range=1.00 / scenecut-aware-qp=0conformance-window-offsets / right=0 / bottom=0 / NTM4NzU= / decoder-max-rate=0 / no-vbv-live-multi-pass
  35. Language                                 : English
  36. Default                                  : Yes
  37. Forced                                   : No
  38. Color range                              : Limited
  39. Color primaries                          : BT.709
  40. Transfer characteristics                 : BT.709
  41. Matrix coefficients                      : BT.709
  42. Audio #1
  43. ID                                       : 2
  44. Format                                   : MLP FBA 16-ch
  45. Format/Info                              : Meridian Lossless Packing FBA with 16-channel presentation
  46. Commercial name                          : Dolby TrueHD with Dolby Atmos
  47. Codec ID                                 : A_TRUEHD
  48. Duration                                 : 1 h 37 min
  49. Bit rate mode                            : Variable
  50. Bit rate                                 : 4 400 kb/s
  51. Maximum bit rate                         : 7 722 kb/s
  52. Channel(s)                               : 8 channels
  53. Channel layout                           : L R C LFE Ls Rs Lb Rb
  54. Sampling rate                            : 48.0 kHz
  55. Frame rate                               : 1 200.000 FPS (40 SPF)
  56. Compression mode                         : Lossless
  57. Stream size                              : 2.99 GiB (29%)
  58. Title                                    : English Dolby TrueHD 7.1 (Atmos) @ 4747 kbps
  59. Language                                 : English
  60. Default                                  : Yes
  61. Forced                                   : No
  62. Number of dynamic objects                : 11
  63. Bed channel count                        : 1 channel
  64. Bed channel configuration                : LFE
  65. Audio #2
  66. ID                                       : 3
  67. Format                                   : AC-3
  68. Format/Info                              : Audio Coding 3
  69. Commercial name                          : Dolby Digital
  70. Codec ID                                 : A_AC3
  71. Duration                                 : 1 h 37 min
  72. Bit rate mode                            : Constant
  73. Bit rate                                 : 320 kb/s
  74. Channel(s)                               : 6 channels
  75. Channel layout                           : L R C LFE Ls Rs
  76. Sampling rate                            : 48.0 kHz
  77. Frame rate                               : 31.250 FPS (1536 SPF)
  78. Compression mode                         : Lossy
  79. Stream size                              : 223 MiB (2%)
  80. Title                                    : English Dolby 5.1-EX 5.1 @ 320 kbps
  81. Language                                 : English
  82. Service kind                             : Complete Main
  83. Default                                  : No
  84. Forced                                   : No
  85. Audio #3
  86. ID                                       : 4
  87. Format                                   : AC-3
  88. Format/Info                              : Audio Coding 3
  89. Commercial name                          : Dolby Digital
  90. Codec ID                                 : A_AC3
  91. Duration                                 : 1 h 36 min
  92. Bit rate mode                            : Constant
  93. Bit rate                                 : 192 kb/s
  94. Channel(s)                               : 2 channels
  95. Channel layout                           : L R
  96. Sampling rate                            : 48.0 kHz
  97. Frame rate                               : 31.250 FPS (1536 SPF)
  98. Compression mode                         : Lossy
  99. Stream size                              : 133 MiB (1%)
  100. Title                                    : English Dolby Digital Audio 2.0 @ 192 kbps  Commentary
  101. Language                                 : English
  102. Service kind                             : Complete Main
  103. Default                                  : No
  104. Forced                                   : No
  105. Text #1
  106. ID                                       : 5
  107. Format                                   : PGS
  108. Codec ID                                 : S_HDMV/PGS
  109. Codec ID/Info                            : Picture based subtitle format used on BDs/HD-DVDs
  110. Duration                                 : 1 h 29 min
  111. Bit rate                                 : 22.5 kb/s
  112. Count of elements                        : 1661
  113. Stream size                              : 14.4 MiB (0%)
  114. Title                                    : Eng/SUP
  115. Language                                 : English
  116. Default                                  : No
  117. Forced                                   : No
  118. Text #2
  119. ID                                       : 6
  120. Format                                   : PGS
  121. Codec ID                                 : S_HDMV/PGS
  122. Codec ID/Info                            : Picture based subtitle format used on BDs/HD-DVDs
  123. Duration                                 : 1 h 30 min
  124. Bit rate                                 : 19.8 kb/s
  125. Count of elements                        : 1678
  126. Stream size                              : 12.9 MiB (0%)
  127. Title                                    : Chs/SUP  简体
  128. Language                                 : Chinese
  129. Default                                  : Yes
  130. Forced                                   : No
  131. Text #3
  132. ID                                       : 7
  133. Format                                   : PGS
  134. Codec ID                                 : S_HDMV/PGS
  135. Codec ID/Info                            : Picture based subtitle format used on BDs/HD-DVDs
  136. Duration                                 : 1 h 30 min
  137. Bit rate                                 : 20.6 kb/s
  138. Count of elements                        : 1678
  139. Stream size                              : 13.4 MiB (0%)
  140. Title                                    : Cht/SUP  繁体
  141. Language                                 : Chinese
  142. Default                                  : No
  143. Forced                                   : No
  144. Text #4
  145. ID                                       : 8
  146. Format                                   : PGS
  147. Codec ID                                 : S_HDMV/PGS
  148. Codec ID/Info                            : Picture based subtitle format used on BDs/HD-DVDs
  149. Duration                                 : 1 h 30 min
  150. Bit rate                                 : 35.0 kb/s
  151. Count of elements                        : 1679
  152. Stream size                              : 22.8 MiB (0%)
  153. Title                                    : Chs/SUP  简英双语
  154. Language                                 : Chinese
  155. Default                                  : No
  156. Forced                                   : No
  157. Text #5
  158. ID                                       : 9
  159. Format                                   : PGS
  160. Codec ID                                 : S_HDMV/PGS
  161. Codec ID/Info                            : Picture based subtitle format used on BDs/HD-DVDs
  162. Duration                                 : 1 h 30 min
  163. Bit rate                                 : 35.4 kb/s
  164. Count of elements                        : 1679
  165. Stream size                              : 23.0 MiB (0%)
  166. Title                                    : Cht/SUP  繁英双语
  167. Language                                 : Chinese
  168. Default                                  : No
  169. Forced                                   : No
  170. Menu
  171. 00:00:00.000                             : en:第 01 章
  172. 00:04:38.069                             : en:第 02 章
  173. 00:09:23.521                             : en:第 03 章
  174. 00:15:56.164                             : en:第 04 章
  175. 00:22:12.623                             : en:第 05 章
  176. 00:27:04.748                             : en:第 06 章
  177. 00:33:16.703                             : en:第 07 章
  178. 00:37:56.941                             : en:第 08 章
  179. 00:43:21.057                             : en:第 09 章
  180. 00:46:45.636                             : en:第 10 章
  181. 00:50:47.253                             : en:第 11 章
  182. 00:55:15.187                             : en:第 12 章
  183. 01:00:57.571                             : en:第 13 章
  184. 01:06:18.892                             : en:第 14 章
  185. 01:10:02.573                             : en:第 15 章
  186. 01:14:21.165                             : en:第 16 章
  187. 01:19:36.146                             : en:第 17 章
  188. 01:23:43.685                             : en:第 18 章
  189. 01:28:13.747                             : en:第 19 章
  190. 01:31:38.118                             : en:第 20 章
复制代码

















保举请利用qBittorrent,utorrent,transmission等标准BT软件下载!以获得最快速度。奉求保种!





回复

使用道具 举报

懒得打字嘛,点击右侧快捷回复 【右侧内容,后台自定义】
您需要登录后才可以回帖 登录 | 立即加入

本版积分规则

Archiver|小黑屋| 蓝光电影网 |网站地图

Copyright © 2021 Comsenz Inc. Powered by 蓝光电影网

蓝光电影网

本站内容由用户自主分享和转载自互联网,转载目的在于传递更多信息,并不代表本网赞同其观点和对其真实性负责。

如有侵权、违反国家法律政策行为,请联系我们,我们会第一时间及时清除和处理!

举报反馈邮箱:[email protected]

快速回复 返回顶部 返回列表