找回密码

蓝光电影网

查看: 34|回复: 0

[剧情] 无人知晓[简繁英字幕].Nobody.Knows.2004.BluRay.1080p.DTS-HD.MA.5.0.x265.10bit-ALT 15.45GB

[复制链接]
蓝光币
7
发表于 2022-7-27 02:16:34 | 显示全部楼层 |阅读模式


◎标  题 无人知晓
◎译  名 谁知赤子心(港) / 无人知晓的夏日早晨(台) / Nobody Knows / Dare mo shiranai
◎片  名 誰も知らない
◎年  代 2004
◎产  地 日本
◎类  别 剧情
◎语  言 日语
◎上映日期 2004-05-13(戛纳电影节) / 2004-08-07(日本)
◎IMDb评分 8.1/10 (26669人评价)
◎IMDb链接 https://www.imdb.com/title/tt0408664/
◎豆瓣评分 9.1/10 (262062人评价)
◎豆瓣链接 https://movie.douban.com/subject/1292337/
◎片  长 141分钟
◎导  演 是枝裕和 Hirokazu Koreeda
◎编  剧 是枝裕和 Hirokazu Koreeda
◎演  员 柳乐优弥 Yûya Yagira
       北浦爱 Ayu Kitaura
       木村飞影 Hiei Kimura
       清水萌萌子 Momoko Shimizu
       韩英惠 Hanae Kan
       江原由希子 YOU
       串田和美 Kazuyoshi Kushida
       冈元夕纪子 Yukiko Okamoto
       楯隆子 Takako Tate
       加濑亮 Ryo Kase
       村野友希 Yuki Murano
       田中庆太 Keita Tanaka
       木村佑一 Yûichi Kimura
       远藤宪一 Ken'ichi Endô
       寺岛进 Susumu Terajima
       平泉成 Sei Hiraizumi
       是枝裕和 Hirokazu Koreeda
       Gontiti Gontiti
       山崎裕 Yutaka Yamazaki
       是枝裕和 Hirokazu Koreeda
       矶见俊裕 Toshihiro Isomi
◎标  签 日本 / 人性 / 长大 / 社会 / 儿童 / 家庭 / 少年 / 剧情
◎简  介
  新搬来的公寓这家人是母亲惠子(You饰)带着四个孩子:明(柳乐优弥饰)、京子、茂、雪。但母亲却得对四周的人们撒谎说丈夫去外洋工作,自己与宗子两小我在一路生活。究竟是别的三名弟妹是“黑孩子”,由于四个孩子有着各自分歧的父亲。他们一向呆在家中,没有去黉舍上学。                                    
                                在母亲去百货商铺工作时,年数尚小的明就在家中取代母亲利用家长的职责。忽然有一天母亲不见了,她把手中唯一的20万日元现金和一张短短的条子留给了孩子们,把弟妹拜托给明看管后,就悄悄地离家出走。                                    
                                无亲无故,对里面几近一无所知的四个孩子们,要起头面临新的生活,那实在不是件轻易的工作……
  1. ##### MediaInfo ######
  2. General
  3. Unique ID                                : 205611910804470416578710847611033059874 (0x9AAF69E14D9054173C23AE383AD78222)
  4. Complete name                            : Nobody.Knows.2004.BluRay.1080p.DTS-HD.MA.5.0.x265.10bit-ALT.mkv
  5. Format                                   : Matroska
  6. Format version                           : Version 4
  7. File size                                : 15.5 GiB
  8. Duration                                 : 2 h 20 min
  9. Overall bit rate mode                    : Variable
  10. Overall bit rate                         : 15.7 Mb/s
  11. Encoded date                             : UTC 2022-07-25 11:29:02
  12. Writing application                      : mkvmerge v49.0.0 ('Sick Of Losing Soulmates') 64-bit
  13. Writing library                          : libebml v1.4.0 + libmatroska v1.6.1
  14. Video
  15. ID                                       : 1
  16. Format                                   : HEVC
  17. Format/Info                              : High Efficiency Video Coding
  18. Format profile                           : Main [email protected]@High
  19. Codec ID                                 : V_MPEGH/ISO/HEVC
  20. Duration                                 : 2 h 20 min
  21. Bit rate                                 : 12.7 Mb/s
  22. Width                                    : 1 792 pixels
  23. Height                                   : 1 080 pixels
  24. Display aspect ratio                     : 5:3
  25. Frame rate mode                          : Constant
  26. Frame rate                               : 23.976 (24000/1001/53875) FPS
  27. Color space                              : YUV
  28. Chroma subsampling                       : 4:2:0
  29. Bit depth                                : 10 bits
  30. Bits/(Pixel*Frame)                       : 0.273
  31. Stream size                              : 12.5 GiB (81%)
  32. Title                                    : HEVC, [email protected]@High, 24/1.001 fps @ 12689 kbps
  33. Writing library                          : x265 3.5+36-1f2c8da77:[Windows][GCC 11.2.0][64 bit] 10bit
  34. Encoding settings                        : cpuid=538751111039 / frame-threads=4 / numa-pools=16 / wpp / no-pmode / no-pme / no-psnr / no-ssim / log-level=2 / input-csp=1 / input-res=1792x1080 / interlace=0 / total-frames=202577 / level-idc=51 / high-tier=1 / uhd-bd=0 / ref=5 / no-allow-non-conformance / no-repeat-headers / annexb / no-aud / no-eob / no-eos / no-hrd / info / hash=0 / no-temporal-layers / open-gop / min-keyint=24 / keyint=240 / gop-lookahead=0 / bframes=6 / b-adapt=2 / b-pyramid / bframe-bias=0 / rc-lookahead=40 / lookahead-slices=0 / NTM4NzU=uuDQuD2mJt9fsCf / scenecut=40 / no-hist-scenecut / radl=0 / no-splice / no-intra-refresh / ctu=32 / min-cu-size=8 / no-rect / no-amp / max-tu-size=32 / tu-inter-depth=3 / tu-intra-depth=3 / limit-tu=4 / rdoq-level=2 / dynamic-rd=0.00 / no-ssim-rd / signhide / no-tskip / nr-intra=0 / nr-inter=0 / no-constrained-intra / no-strong-intra-smoothing / max-merge=4 / limit-refs=1 / limit-modes / me=3 / subme=4 / merange=25 / temporal-mvp / no-frame-dup / no-hme / weightp / weightb / no-analyze-src-pics / deblock=-3:-3 / no-sao / no-sao-non-deblock / rd=6 / selective-sao=0 / no-early-skip / rskip / no-fast-intra / no-tskip-fast / no-cu-lossless / b-intra / no-splitrd-skip / rdpenalty=0 / psy-rd=2.00 / psy-rdoq=1.00 / no-rd-refine / no-lossless / cbqpoffs=-2 / crqpoffs=-2 / rc=crf / crf=18.5 / qcomp=0.65 / qpstep=4 / stats-write=0 / stats-read=0 / vbv-maxrate=80000 / vbv-bufsize=80000 / vbv-init=0.9 / min-vbv-fullness=50.0 / max-vbv-fullness=80.0 / crf-max=0.0 / crf-min=0.0 / ipratio=1.40 / pbratio=1.30 / aq-mode=2 / aq-strength=0.85 / cutree / zone-count=0 / no-strict-cbr / qg-size=32 / no-rc-grain / qpmax=69 / qpmin=0 / no-const-vbv / sar=1 / overscan=0 / videoformat=5 / range=0 / colorprim=1 / transfer=1 / colormatrix=1 / chromaloc=0 / display-window=0 / cll=0,0 / min-luma=0 / max-luma=1023 / log2-max-poc-lsb=8 / vui-timing-info / vui-hrd-info / slices=1 / no-opt-qp-pps / no-opt-ref-list-length-pps / no-multi-pass-opt-rps / scenecut-bias=0.05 / hist-threshold=0.03 / no-opt-cu-delta-qp / no-aq-motion / no-hdr10 / no-hdr10-opt / no-dhdr10-opt / no-idr-recovery-sei / analysis-reuse-level=0 / analysis-save-reuse-level=0 / analysis-load-reuse-level=0 / scale-factor=0 / refine-intra=0 / refine-inter=0 / refine-mv=1 / refine-ctu-distortion=0 / no-limit-sao / ctu-info=0 / no-lowpass-dct / refine-analysis-type=0 / copy-pic=1 / max-ausize-factor=1.0 / no-dynamic-refine / no-single-sei / no-hevc-aq / no-svt / no-field / qp-adaptation-range=1.00 / scenecut-aware-qp=0conformance-window-offsets / right=0 / bottom=0 / NTM4NzU= / decoder-max-rate=0 / no-vbv-live-multi-pass
  35. Language                                 : English
  36. Default                                  : Yes
  37. Forced                                   : No
  38. Color range                              : Limited
  39. Color primaries                          : BT.709
  40. Transfer characteristics                 : BT.709
  41. Matrix coefficients                      : BT.709
  42. Audio
  43. ID                                       : 2
  44. Format                                   : DTS XLL
  45. Format/Info                              : Digital Theater Systems
  46. Commercial name                          : DTS-HD Master Audio
  47. Codec ID                                 : A_DTS
  48. Duration                                 : 2 h 20 min
  49. Bit rate mode                            : Variable
  50. Bit rate                                 : 2 980 kb/s
  51. Channel(s)                               : 5 channels
  52. Channel layout                           : C L R Ls Rs
  53. Sampling rate                            : 48.0 kHz
  54. Frame rate                               : 93.750 FPS (512 SPF)
  55. Bit depth                                : 24 bits
  56. Compression mode                         : Lossless
  57. Stream size                              : 2.93 GiB (19%)
  58. Title                                    : Japanese DTS-HD Master Audio 5.0 @ 2980 kbps
  59. Language                                 : Japanese
  60. Default                                  : Yes
  61. Forced                                   : No
  62. Text #1
  63. ID                                       : 3
  64. Format                                   : PGS
  65. Codec ID                                 : S_HDMV/PGS
  66. Codec ID/Info                            : Picture based subtitle format used on BDs/HD-DVDs
  67. Duration                                 : 2 h 20 min
  68. Bit rate                                 : 11.6 kb/s
  69. Count of elements                        : 1738
  70. Stream size                              : 11.6 MiB (0%)
  71. Title                                    : Eng/SUP
  72. Language                                 : English
  73. Default                                  : No
  74. Forced                                   : No
  75. Text #2
  76. ID                                       : 4
  77. Format                                   : PGS
  78. Codec ID                                 : S_HDMV/PGS
  79. Codec ID/Info                            : Picture based subtitle format used on BDs/HD-DVDs
  80. Duration                                 : 2 h 16 min
  81. Bit rate                                 : 11.8 kb/s
  82. Count of elements                        : 1638
  83. Stream size                              : 11.5 MiB (0%)
  84. Title                                    : Chs/SUP  简体
  85. Language                                 : Chinese
  86. Default                                  : Yes
  87. Forced                                   : No
  88. Text #3
  89. ID                                       : 5
  90. Format                                   : PGS
  91. Codec ID                                 : S_HDMV/PGS
  92. Codec ID/Info                            : Picture based subtitle format used on BDs/HD-DVDs
  93. Duration                                 : 2 h 16 min
  94. Bit rate                                 : 12.2 kb/s
  95. Count of elements                        : 1638
  96. Stream size                              : 11.9 MiB (0%)
  97. Title                                    : Cht/SUP  繁体
  98. Language                                 : Chinese
  99. Default                                  : No
  100. Forced                                   : No
  101. Menu
  102. 00:00:00.000                             : en:第 01 章
  103. 00:09:56.095                             : en:第 02 章
  104. 00:14:24.489                             : en:第 03 章
  105. 00:19:56.570                             : en:第 04 章
  106. 00:27:50.002                             : en:第 05 章
  107. 00:35:40.638                             : en:第 06 章
  108. 00:41:51.134                             : en:第 07 章
  109. 00:51:15.739                             : en:第 08 章
  110. 00:59:19.681                             : en:第 09 章
  111. 01:07:29.420                             : en:第 10 章
  112. 01:16:15.988                             : en:第 11 章
  113. 01:23:55.572                             : en:第 12 章
  114. 01:32:43.433                             : en:第 13 章
  115. 01:39:07.233                             : en:第 14 章
  116. 01:46:56.285                             : en:第 15 章
  117. 01:55:18.203                             : en:第 16 章
  118. 02:04:20.536                             : en:第 17 章
  119. 02:14:55.212                             : en:第 18 章
  120. 02:17:53.974                             : en:第 19 章
复制代码

















保举请利用qBittorrent,utorrent,transmission等标准BT软件下载!以获得最快速度。奉求保种!





回复

使用道具 举报

懒得打字嘛,点击右侧快捷回复 【右侧内容,后台自定义】
您需要登录后才可以回帖 登录 | 立即加入

本版积分规则

Archiver|小黑屋| 蓝光电影网 |网站地图

Copyright © 2021 Comsenz Inc. Powered by 蓝光电影网

蓝光电影网

本站内容由用户自主分享和转载自互联网,转载目的在于传递更多信息,并不代表本网赞同其观点和对其真实性负责。

如有侵权、违反国家法律政策行为,请联系我们,我们会第一时间及时清除和处理!

举报反馈邮箱:[email protected]

快速回复 返回顶部 返回列表