找回密码

蓝光电影网

查看: 38|回复: 0

[剧情] 男与女[简繁字幕].A.Man.and.A.Woman.2016.1080p.BluRay.x264.DTS-CTRLHD 9.31GB

[复制链接]
蓝光币
7
发表于 2022-7-27 02:16:36 | 显示全部楼层 |阅读模式


◎标  题 男与女
◎译  名 雪国情人(港) / 关不住的引诱(台) / 男和女 / A Man and A Woman
◎片  名 남과여
◎年  代 2016
◎产  地 韩国
◎类  别 剧情 / 恋爱
◎语  言 韩语
◎上映日期 2016-02-25(韩国)
◎IMDb评分 6.8/10 (1423人评价)
◎IMDb链接 https://www.imdb.com/title/tt5700648/
◎豆瓣评分 8.1/10 (67235人评价)
◎豆瓣链接 https://movie.douban.com/subject/25835285/
◎片  长 115分钟
◎导  演 李胤基 Yoon-ki Lee
◎编  剧 申恩庆 Shin Eun-Young
       李胤基 Yoon-ki Lee
◎演  员 孔刘 Yoo Gong
       全度妍 Do-yeon Jeon
       李美素 Lee Mi-so
       朴秉恩 Byung-eun Park
       朴敏智 Min-ji Park
       尹世雅 Se-ah Yoon
       维拉·W·维洛 Veera W. Vilo
       马尔科·维尔斯克曼 Marko Wilskman
       卡蒂·奥廷宁 Kati Outinen
       表圣秀 Sung-Soo Pyo
       白桑熙 Sang-hee Baek
       全益玲 Jeon Ik-ryeong
       卢康民 No Kang-min
       金英善 Yeong-seon Kim
◎标  签 韩国 / 恋爱 / 伦理 / 文艺 / 感情 / 家庭 / 剧情 / 哀痛
◎简  介
  春电影公司建造的《男与女》,故事报告一对男女在异国相遇后,沉溺於忌讳爱恋的故事。本片由《出色的一天》、《爱,不爱》的导演李润基执导。孔侑饰演男配角基宏,是出道以来初次应战豪情戏。全度妍则饰演尚敏,是出於对春电影公司和李润基导演的信赖,,接管此一应战。
  1. ##### MediaInfo ######
  2. General
  3. Unique ID                                : 178500531440912756412283672108364193217 (0x8649F3AD09DF308699056085792BDDC1)
  4. Complete name                            : A.Man.and.A.Woman.2016.1080p.BluRay.x264.DTS-CTRLHD.mkv
  5. Format                                   : Matroska
  6. Format version                           : Version 1
  7. File size                                : 9.31 GiB
  8. Duration                                 : 1 h 55 min
  9. Overall bit rate                         : 11.6 Mb/s
  10. Encoded date                             : UTC 2022-07-23 07:59:05
  11. Writing application                      : mkvmerge v2.2.0 ('Turn It On Again') built on Mar  4 2008 13:20:25
  12. Writing library                          : libebml v0.7.7 + libmatroska v0.8.1
  13. Attachments                              : MSYH.TTF / MSYH_chscht.ttf / MSYHBD.TTF / tahoma.ttf
  14. Video
  15. ID                                       : 1
  16. Format                                   : AVC
  17. Format/Info                              : Advanced Video Codec
  18. Format profile                           : [email protected]
  19. Format settings                          : CABAC / 5 Ref Frames
  20. Format settings, CABAC                   : Yes
  21. Format settings, Reference frames        : 5 frames
  22. Codec ID                                 : V_MPEG4/ISO/AVC
  23. Duration                                 : 1 h 55 min
  24. Bit rate                                 : 10 000 kb/s
  25. Width                                    : 1 916 pixels
  26. Height                                   : 756 pixels
  27. Display aspect ratio                     : 2.534
  28. Frame rate mode                          : Constant
  29. Frame rate                               : 23.976 (24000/1001/53875) FPS
  30. Color space                              : YUV
  31. Chroma subsampling                       : 4:2:0
  32. Bit depth                                : 8 bits
  33. Scan type                                : Progressive
  34. Bits/(Pixel*Frame)                       : 0.288
  35. Stream size                              : 7.91 GiB (85%)
  36. Writing library                          : x264 core 130 r2273 b3065e6
  37. Encoding settings                        : cabac=1 / ref=5 / deblock=1:-3:-3 / analyse=0x3:0x113 / me=umh / subme=11 / psy=1 / psy_rd=1.00:0.00 / mixed_ref=1 / me_range=32 / chroma_me=1 / trellis=2 / 8x8dct=1 / cqm=0 / deadzone=21,11 / fast_pskip=0 / chroma_qp_offset=-4 / threads=12 / lookahead_threads=2 / sliced_threads=0 / nr=0 / decimate=0 / interlaced=0 / NTM4NzU= / bluray_compat=0 / constrained_intra=0 / bframes=8 / b_pyramid=2 / b_adapt=2 / b_bias=0 / direct=3 / weightb=1 / open_gop=0 / weightp=2 / keyint=250 / keyint_min=23 / NTM4NzU=uuDQuD2mJt9fsCf / scenecut=40 / intra_refresh=0 / rc=2pass / mbtree=0 / bitrate=10000 / ratetol=1.0 / qcomp=0.60 / qpmin=0 / qpmax=69 / qpstep=4 / cplxblur=20.0 / qblur=0.5 / NTM4NzU=LmsMAP37EqsCpk / ip_ratio=1.40 / pb_ratio=1.30 / aq=1:0.80
  38. Language                                 : English
  39. Default                                  : Yes
  40. Forced                                   : No
  41. Audio
  42. ID                                       : 2
  43. Format                                   : DTS
  44. Format/Info                              : Digital Theater Systems
  45. Codec ID                                 : A_DTS
  46. Duration                                 : 1 h 55 min
  47. Bit rate mode                            : Constant
  48. Bit rate                                 : 1 509 kb/s
  49. Channel(s)                               : 6 channels
  50. Channel layout                           : C L R Ls Rs LFE
  51. Sampling rate                            : 48.0 kHz
  52. Frame rate                               : 93.750 FPS (512 SPF)
  53. Bit depth                                : 24 bits
  54. Compression mode                         : Lossy
  55. Stream size                              : 1.21 GiB (13%)
  56. Title                                    : 韩语
  57. Language                                 : Korean
  58. Default                                  : Yes
  59. Forced                                   : No
  60. Statistics Tags Issue                    : mkvmerge v8.2.0 ('World of Adventure') 64bit 2016-07-31 07:44:52 / mkvmerge v2.2.0 ('Turn It On Again') built on Mar  4 2008 13:20:25 2022-07-23 07:59:05
  61. FromStats_BitRate                        : 1509000
  62. FromStats_Duration                       : 01:55:10.944000000
  63. FromStats_FrameCount                     : 647901
  64. FromStats_StreamSize                     : 1303576812
  65. Text #1
  66. ID                                       : 3
  67. Format                                   : ASS
  68. Codec ID                                 : S_TEXT/ASS
  69. Codec ID/Info                            : Advanced Sub Station Alpha
  70. Compression mode                         : Lossless
  71. Title                                    : chs
  72. Language                                 : Chinese
  73. Default                                  : Yes
  74. Forced                                   : No
  75. Text #2
  76. ID                                       : 4
  77. Format                                   : ASS
  78. Codec ID                                 : S_TEXT/ASS
  79. Codec ID/Info                            : Advanced Sub Station Alpha
  80. Compression mode                         : Lossless
  81. Title                                    : cht
  82. Language                                 : Chinese
  83. Default                                  : No
  84. Forced                                   : No
复制代码

















保举请利用qBittorrent,utorrent,transmission等标准BT软件下载!以获得最快速度。奉求保种!





回复

使用道具 举报

懒得打字嘛,点击右侧快捷回复 【右侧内容,后台自定义】
您需要登录后才可以回帖 登录 | 立即加入

本版积分规则

Archiver|小黑屋| 蓝光电影网 |网站地图

Copyright © 2021 Comsenz Inc. Powered by 蓝光电影网

蓝光电影网

本站内容由用户自主分享和转载自互联网,转载目的在于传递更多信息,并不代表本网赞同其观点和对其真实性负责。

如有侵权、违反国家法律政策行为,请联系我们,我们会第一时间及时清除和处理!

举报反馈邮箱:[email protected]

快速回复 返回顶部 返回列表