找回密码

蓝光电影网

查看: 40|回复: 0

[剧情] 男与女[简繁字幕].A.Man.and.A.Woman.2016.1080p.BluRay.x265.10bit.DTS-CTRLHD 6.35GB

[复制链接]
蓝光币
7
发表于 2022-7-27 02:16:39 | 显示全部楼层 |阅读模式


◎标  题 男与女
◎译  名 雪国情人(港) / 关不住的引诱(台) / 男和女 / A Man and A Woman
◎片  名 남과여
◎年  代 2016
◎产  地 韩国
◎类  别 剧情 / 恋爱
◎语  言 韩语
◎上映日期 2016-02-25(韩国)
◎IMDb评分 6.8/10 (1423人评价)
◎IMDb链接 https://www.imdb.com/title/tt5700648/
◎豆瓣评分 8.1/10 (67235人评价)
◎豆瓣链接 https://movie.douban.com/subject/25835285/
◎片  长 115分钟
◎导  演 李胤基 Yoon-ki Lee
◎编  剧 申恩庆 Shin Eun-Young
       李胤基 Yoon-ki Lee
◎演  员 孔刘 Yoo Gong
       全度妍 Do-yeon Jeon
       李美素 Lee Mi-so
       朴秉恩 Byung-eun Park
       朴敏智 Min-ji Park
       尹世雅 Se-ah Yoon
       维拉·W·维洛 Veera W. Vilo
       马尔科·维尔斯克曼 Marko Wilskman
       卡蒂·奥廷宁 Kati Outinen
       表圣秀 Sung-Soo Pyo
       白桑熙 Sang-hee Baek
       全益玲 Jeon Ik-ryeong
       卢康民 No Kang-min
       金英善 Yeong-seon Kim
◎标  签 韩国 / 恋爱 / 伦理 / 文艺 / 感情 / 家庭 / 剧情 / 哀痛
◎简  介
  春电影公司建造的《男与女》,故事报告一对男女在异国相遇后,沉溺於忌讳爱恋的故事。本片由《出色的一天》、《爱,不爱》的导演李润基执导。孔侑饰演男配角基宏,是出道以来初次应战豪情戏。全度妍则饰演尚敏,是出於对春电影公司和李润基导演的信赖,,接管此一应战。
  1. ##### MediaInfo ######
  2. General
  3. Unique ID                                : 175038111610439239007916570933527145677 (0x83AF1D32C5605AEDADB1EFAA7A716CCD)
  4. Complete name                            : A.Man.and.A.Woman.2016.1080p.BluRay.x265.10bit.DTS-CTRLHD.mkv
  5. Format                                   : Matroska
  6. Format version                           : Version 1
  7. File size                                : 6.35 GiB
  8. Duration                                 : 1 h 55 min
  9. Overall bit rate                         : 7 892 kb/s
  10. Encoded date                             : UTC 2022-07-22 23:27:13
  11. Writing application                      : mkvmerge v2.2.0 ('Turn It On Again') built on Mar  4 2008 13:20:25
  12. Writing library                          : libebml v0.7.7 + libmatroska v0.8.1
  13. Attachments                              : MSYH.TTF / MSYH_chscht.ttf / MSYHBD.TTF / tahoma.ttf
  14. Video
  15. ID                                       : 1
  16. Format                                   : HEVC
  17. Format/Info                              : High Efficiency Video Coding
  18. Format profile                           : Main [email protected]@Main
  19. Codec ID                                 : V_MPEGH/ISO/HEVC
  20. Duration                                 : 1 h 55 min
  21. Bit rate                                 : 6 226 kb/s
  22. Width                                    : 1 916 pixels
  23. Height                                   : 756 pixels
  24. Display aspect ratio                     : 2.534
  25. Frame rate mode                          : Constant
  26. Frame rate                               : 23.976 (24000/1001/53875) FPS
  27. Color space                              : YUV
  28. Chroma subsampling                       : 4:2:0
  29. Bit depth                                : 10 bits
  30. Bits/(Pixel*Frame)                       : 0.179
  31. Stream size                              : 5.01 GiB (79%)
  32. Default                                  : Yes
  33. Forced                                   : No
  34. Audio
  35. ID                                       : 2
  36. Format                                   : DTS
  37. Format/Info                              : Digital Theater Systems
  38. Codec ID                                 : A_DTS
  39. Duration                                 : 1 h 55 min
  40. Bit rate mode                            : Constant
  41. Bit rate                                 : 1 509 kb/s
  42. Channel(s)                               : 6 channels
  43. Channel layout                           : C L R Ls Rs LFE
  44. Sampling rate                            : 48.0 kHz
  45. Frame rate                               : 93.750 FPS (512 SPF)
  46. Bit depth                                : 24 bits
  47. Compression mode                         : Lossy
  48. Stream size                              : 1.21 GiB (19%)
  49. Title                                    : 韩语
  50. Language                                 : Korean
  51. Default                                  : Yes
  52. Forced                                   : No
  53. Statistics Tags Issue                    : mkvmerge v67.0.0 ('Under Stars') 64-bit 2022-07-19 07:29:52 / mkvmerge v2.2.0 ('Turn It On Again') built on Mar  4 2008 13:20:25 2022-07-22 23:27:13
  54. FromStats_BitRate                        : 1509000
  55. FromStats_Duration                       : 01:55:10.944000000
  56. FromStats_FrameCount                     : 647901
  57. FromStats_StreamSize                     : 1303576812
  58. Text #1
  59. ID                                       : 3
  60. Format                                   : ASS
  61. Codec ID                                 : S_TEXT/ASS
  62. Codec ID/Info                            : Advanced Sub Station Alpha
  63. Compression mode                         : Lossless
  64. Title                                    : chs
  65. Language                                 : Chinese
  66. Default                                  : Yes
  67. Forced                                   : No
  68. Text #2
  69. ID                                       : 4
  70. Format                                   : ASS
  71. Codec ID                                 : S_TEXT/ASS
  72. Codec ID/Info                            : Advanced Sub Station Alpha
  73. Compression mode                         : Lossless
  74. Title                                    : cht
  75. Language                                 : Chinese
  76. Default                                  : No
  77. Forced                                   : No
复制代码

















保举请利用qBittorrent,utorrent,transmission等标准BT软件下载!以获得最快速度。奉求保种!





回复

使用道具 举报

懒得打字嘛,点击右侧快捷回复 【右侧内容,后台自定义】
您需要登录后才可以回帖 登录 | 立即加入

本版积分规则

Archiver|小黑屋| 蓝光电影网 |网站地图

Copyright © 2021 Comsenz Inc. Powered by 蓝光电影网

蓝光电影网

本站内容由用户自主分享和转载自互联网,转载目的在于传递更多信息,并不代表本网赞同其观点和对其真实性负责。

如有侵权、违反国家法律政策行为,请联系我们,我们会第一时间及时清除和处理!

举报反馈邮箱:[email protected]

快速回复 返回顶部 返回列表