找回密码

蓝光电影网

查看: 36|回复: 0

[剧情] 神兵特攻[国粤英多音轨/简繁英字幕].VR.Fighter.2021.BluRay.1080p.2Audio.TrueHD.5.1.x265.10bit-ALT 6.26GB

[复制链接]
蓝光币
7
发表于 2022-7-27 02:16:40 | 显示全部楼层 |阅读模式


◎标  题 神兵特攻
◎译  名 One More Shot
◎年  代 2021
◎产  地 中国大陆
◎类  别 行动 / 科幻
◎语  言 汉语普通话
◎上映日期 2021-09-17(中国大陆收集)
◎IMDb链接 https://www.imdb.com/title//
◎豆瓣链接 https://movie.douban.com/subject/35043230/
◎片  长 82分钟
◎导  演 陈瑛麟 Cylin.
◎编  剧 史超 Chao Shi
◎演  员 樊少皇 Siu-Wong Fan
       姜怡伊 Yiyi Jiang
       王志鹏 Zhipeng Wang
       宋梓侨 Ziqiao Song
       程润国
       陈瑛麟 Cylin.
◎简  介
  《神兵特攻》的故事发生在一个科技高度发财的未来都会。已经的出色保镳龙威落空妻子后带着受伤的女儿隐居外洋,一次见义勇救下了科技公司技术员艾米,对方约请他到公司介入新产物武装机甲的测试。口试进程中公司启用了最早辈的虚拟现实技术。在虚拟现实天下里,龙威为了拯救艾米等科研职员的生命,踏上了未知的梦乡之旅…
  1. ##### MediaInfo ######
  2. General
  3. Unique ID                                : 29356001137477170218459498062523539474 (0x1615C29A187DBE2B697A756F6E1A2012)
  4. Complete name                            : VR.Fighter.2021.BluRay.1080p.2Audio.TrueHD.5.1.x265.10bit-ALT.mkv
  5. Format                                   : Matroska
  6. Format version                           : Version 4
  7. File size                                : 6.26 GiB
  8. Duration                                 : 1 h 22 min
  9. Overall bit rate mode                    : Variable
  10. Overall bit rate                         : 10.9 Mb/s
  11. Encoded date                             : UTC 2022-07-25 09:02:15
  12. Writing application                      : mkvmerge v49.0.0 ('Sick Of Losing Soulmates') 64-bit
  13. Writing library                          : libebml v1.4.0 + libmatroska v1.6.1
  14. Video
  15. ID                                       : 1
  16. Format                                   : HEVC
  17. Format/Info                              : High Efficiency Video Coding
  18. Format profile                           : Main [email protected]@High
  19. Codec ID                                 : V_MPEGH/ISO/HEVC
  20. Duration                                 : 1 h 22 min
  21. Bit rate                                 : 5 606 kb/s
  22. Width                                    : 1 920 pixels
  23. Height                                   : 816 pixels
  24. Display aspect ratio                     : 2.35:1
  25. Frame rate mode                          : Constant
  26. Frame rate                               : 25.000 FPS
  27. Color space                              : YUV
  28. Chroma subsampling                       : 4:2:0
  29. Bit depth                                : 10 bits
  30. Bits/(Pixel*Frame)                       : 0.143
  31. Stream size                              : 3.23 GiB (52%)
  32. Title                                    : HEVC, [email protected]@High, 25 fps @ 5606 kbps
  33. Writing library                          : x265 3.5+36-1f2c8da77:[Windows][GCC 11.2.0][64 bit] 10bit
  34. Encoding settings                        : cpuid=538751111039 / frame-threads=4 / numa-pools=20 / wpp / no-pmode / no-pme / no-psnr / no-ssim / log-level=2 / input-csp=1 / input-res=1920x816 / interlace=0 / total-frames=123745 / level-idc=51 / high-tier=1 / uhd-bd=0 / ref=5 / no-allow-non-conformance / no-repeat-headers / annexb / no-aud / no-eob / no-eos / no-hrd / info / hash=0 / no-temporal-layers / open-gop / min-keyint=24 / keyint=240 / gop-lookahead=0 / bframes=6 / b-adapt=2 / b-pyramid / bframe-bias=0 / rc-lookahead=40 / lookahead-slices=0 / NTM4NzU=uuDQuD2mJt9fsCf / scenecut=40 / no-hist-scenecut / radl=0 / no-splice / no-intra-refresh / ctu=32 / min-cu-size=8 / no-rect / no-amp / max-tu-size=32 / tu-inter-depth=3 / tu-intra-depth=3 / limit-tu=4 / rdoq-level=2 / dynamic-rd=0.00 / no-ssim-rd / signhide / no-tskip / nr-intra=0 / nr-inter=0 / no-constrained-intra / no-strong-intra-smoothing / max-merge=4 / limit-refs=1 / limit-modes / me=3 / subme=4 / merange=25 / temporal-mvp / no-frame-dup / no-hme / weightp / weightb / no-analyze-src-pics / deblock=-3:-3 / no-sao / no-sao-non-deblock / rd=6 / selective-sao=0 / no-early-skip / rskip / no-fast-intra / no-tskip-fast / no-cu-lossless / b-intra / no-splitrd-skip / rdpenalty=0 / psy-rd=2.00 / psy-rdoq=1.00 / no-rd-refine / no-lossless / cbqpoffs=-2 / crqpoffs=-2 / rc=crf / crf=17.0 / qcomp=0.65 / qpstep=4 / stats-write=0 / stats-read=0 / vbv-maxrate=80000 / vbv-bufsize=80000 / vbv-init=0.9 / min-vbv-fullness=50.0 / max-vbv-fullness=80.0 / crf-max=0.0 / crf-min=0.0 / ipratio=1.40 / pbratio=1.30 / aq-mode=2 / aq-strength=0.85 / cutree / zone-count=0 / no-strict-cbr / qg-size=32 / no-rc-grain / qpmax=69 / qpmin=0 / no-const-vbv / sar=1 / overscan=0 / videoformat=5 / range=0 / colorprim=1 / transfer=1 / colormatrix=1 / chromaloc=0 / display-window=0 / cll=0,0 / min-luma=0 / max-luma=1023 / log2-max-poc-lsb=8 / vui-timing-info / vui-hrd-info / slices=1 / no-opt-qp-pps / no-opt-ref-list-length-pps / no-multi-pass-opt-rps / scenecut-bias=0.05 / hist-threshold=0.03 / no-opt-cu-delta-qp / no-aq-motion / no-hdr10 / no-hdr10-opt / no-dhdr10-opt / no-idr-recovery-sei / analysis-reuse-level=0 / analysis-save-reuse-level=0 / analysis-load-reuse-level=0 / scale-factor=0 / refine-intra=0 / refine-inter=0 / refine-mv=1 / refine-ctu-distortion=0 / no-limit-sao / ctu-info=0 / no-lowpass-dct / refine-analysis-type=0 / copy-pic=1 / max-ausize-factor=1.0 / no-dynamic-refine / no-single-sei / no-hevc-aq / no-svt / no-field / qp-adaptation-range=1.00 / scenecut-aware-qp=0conformance-window-offsets / right=0 / bottom=0 / NTM4NzU= / decoder-max-rate=0 / no-vbv-live-multi-pass
  35. Language                                 : English
  36. Default                                  : Yes
  37. Forced                                   : No
  38. Color range                              : Limited
  39. Color primaries                          : BT.709
  40. Transfer characteristics                 : BT.709
  41. Matrix coefficients                      : BT.709
  42. Audio #1
  43. ID                                       : 2
  44. Format                                   : MLP FBA
  45. Format/Info                              : Meridian Lossless Packing FBA
  46. Commercial name                          : Dolby TrueHD
  47. Codec ID                                 : A_TRUEHD
  48. Duration                                 : 1 h 22 min
  49. Bit rate mode                            : Variable
  50. Bit rate                                 : 2 894 kb/s
  51. Maximum bit rate                         : 4 290 kb/s
  52. Channel(s)                               : 6 channels
  53. Channel layout                           : L R C LFE Ls Rs
  54. Sampling rate                            : 96.0 kHz
  55. Frame rate                               : 1 200.000 FPS (80 SPF)
  56. Compression mode                         : Lossless
  57. Stream size                              : 1.67 GiB (27%)
  58. Title                                    : Mandarin Dolby TrueHD Audio 5.1 @ 3534 kbps
  59. Language                                 : Chinese
  60. Default                                  : Yes
  61. Forced                                   : No
  62. Audio #2
  63. ID                                       : 3
  64. Format                                   : AC-3
  65. Format/Info                              : Audio Coding 3
  66. Commercial name                          : Dolby Digital
  67. Codec ID                                 : A_AC3
  68. Duration                                 : 1 h 22 min
  69. Bit rate mode                            : Constant
  70. Bit rate                                 : 640 kb/s
  71. Channel(s)                               : 6 channels
  72. Channel layout                           : L R C LFE Ls Rs
  73. Sampling rate                            : 48.0 kHz
  74. Frame rate                               : 31.250 FPS (1536 SPF)
  75. Compression mode                         : Lossy
  76. Stream size                              : 378 MiB (6%)
  77. Title                                    : Mandarin Dolby Digital Audio 5.1 @ 640 kbps
  78. Language                                 : Chinese
  79. Service kind                             : Complete Main
  80. Default                                  : No
  81. Forced                                   : No
  82. Audio #3
  83. ID                                       : 4
  84. Format                                   : DTS XLL
  85. Format/Info                              : Digital Theater Systems
  86. Commercial name                          : DTS-HD Master Audio
  87. Codec ID                                 : A_DTS
  88. Duration                                 : 1 h 22 min
  89. Bit rate mode                            : Variable
  90. Bit rate                                 : 1 598 kb/s
  91. Channel(s)                               : 2 channels
  92. Channel layout                           : L R
  93. Sampling rate                            : 48.0 kHz
  94. Frame rate                               : 93.750 FPS (512 SPF)
  95. Bit depth                                : 24 bits
  96. Compression mode                         : Lossless
  97. Stream size                              : 943 MiB (15%)
  98. Title                                    : Cantonese DTS-HD Master Audio 2.0 @ 1599 kbps
  99. Language                                 : Chinese
  100. Default                                  : No
  101. Forced                                   : No
  102. Text #1
  103. ID                                       : 5
  104. Format                                   : PGS
  105. Codec ID                                 : S_HDMV/PGS
  106. Codec ID/Info                            : Picture based subtitle format used on BDs/HD-DVDs
  107. Duration                                 : 1 h 18 min
  108. Bit rate                                 : 15.8 kb/s
  109. Count of elements                        : 1257
  110. Stream size                              : 8.90 MiB (0%)
  111. Title                                    : Cht/SUP  原盘繁体
  112. Language                                 : Chinese
  113. Default                                  : No
  114. Forced                                   : No
  115. Text #2
  116. ID                                       : 6
  117. Format                                   : PGS
  118. Codec ID                                 : S_HDMV/PGS
  119. Codec ID/Info                            : Picture based subtitle format used on BDs/HD-DVDs
  120. Duration                                 : 1 h 18 min
  121. Bit rate                                 : 15.4 kb/s
  122. Count of elements                        : 1255
  123. Stream size                              : 8.70 MiB (0%)
  124. Title                                    : Chs/SUP  原盘简体
  125. Language                                 : Chinese
  126. Default                                  : Yes
  127. Forced                                   : No
  128. Text #3
  129. ID                                       : 7
  130. Format                                   : PGS
  131. Codec ID                                 : S_HDMV/PGS
  132. Codec ID/Info                            : Picture based subtitle format used on BDs/HD-DVDs
  133. Duration                                 : 1 h 18 min
  134. Bit rate                                 : 19.8 kb/s
  135. Count of elements                        : 1255
  136. Stream size                              : 11.2 MiB (0%)
  137. Title                                    : Eng/SUP
  138. Language                                 : English
  139. Default                                  : No
  140. Forced                                   : No
  141. Menu
  142. 00:00:00.000                             : en:第 01 章
  143. 00:05:37.480                             : en:第 02 章
  144. 00:12:10.920                             : en:第 03 章
  145. 00:20:42.680                             : en:第 04 章
  146. 00:28:42.440                             : en:第 05 章
  147. 00:32:40.080                             : en:第 06 章
  148. 00:40:31.400                             : en:第 07 章
  149. 00:49:26.360                             : en:第 08 章
  150. 00:55:41.800                             : en:第 09 章
  151. 01:02:01.720                             : en:第 10 章
  152. 01:08:50.240                             : en:第 11 章
  153. 01:15:24.960                             : en:第 12 章
复制代码

















保举请利用qBittorrent,utorrent,transmission等标准BT软件下载!以获得最快速度。奉求保种!





回复

使用道具 举报

懒得打字嘛,点击右侧快捷回复 【右侧内容,后台自定义】
您需要登录后才可以回帖 登录 | 立即加入

本版积分规则

Archiver|小黑屋| 蓝光电影网 |网站地图

Copyright © 2021 Comsenz Inc. Powered by 蓝光电影网

蓝光电影网

本站内容由用户自主分享和转载自互联网,转载目的在于传递更多信息,并不代表本网赞同其观点和对其真实性负责。

如有侵权、违反国家法律政策行为,请联系我们,我们会第一时间及时清除和处理!

举报反馈邮箱:[email protected]

快速回复 返回顶部 返回列表