找回密码

蓝光电影网

查看: 43|回复: 0

[剧情] 红场飞龙[国粤多音轨/简繁英字幕].The.Dragon.from.Russia.1990.Bluray.1080p.x264.DTS.5.1.2Audio-MOMOHD 7.69GB

[复制链接]
蓝光币
7
发表于 2022-7-27 02:16:44 | 显示全部楼层 |阅读模式


◎标  题 红场飞龙
◎译  名 淚眼煞星(台) / The Dragon from Russia
◎片  名 紅場飛龍
◎年  代 1990
◎产  地 中国香港
◎类  别 行动
◎语  言 粤语
◎上映日期 1990-08-03
◎IMDb评分 5.5/10 (430人评价)
◎IMDb链接 https://www.imdb.com/title/tt0099791/
◎豆瓣评分 5.8/10 (2015人评价)
◎豆瓣链接 https://movie.douban.com/subject/1308312/
◎片  长 96 分钟
◎导  演 霍耀良 Clarence Fok Yiu-leung
◎编  剧 池上辽一 Ryoichi Ikegami
       小池一夫 Kazuo Koike
◎演  员 许冠杰 Samuel Hui
       张曼玉 Maggie Cheung
       利智 Nina Li Chi
       吴家丽 Carrie Ng
       李丽珍 Loletta Lee
       孙兴 Hing Suen
       石天 Dean Shek
       元华 Wah Yuen
       白鹰 Ying Bai
       刘洵 Shun Lau
       陈东 Tung Chen
       潘德铨 Tak Chuen Poon
       卢雄 Paul Lo
       Nathan Chukueke Nathan Chukueke
       李丽蕊 Sara Lee
       元德 Tak Yuen
       石天 Dean Shek
       霍耀良 Clarence Fok Yiu-leung
       林敏怡 Man Yee Lam
       敖志君 Peter Ngor
       黄铭林 Ming Lam Wong
       陈顾方 Shirley Chan
       邓光荣 Wing-Yiu Tang
       元德 Tak Yuen
       刘嘉蔚 Catherine Lau
◎简  介
  20世纪末,杀手构造“八百龙”做大,首领泪七龙面临季秋堂(刘洵 饰)的哗变不敌,遂率手下前往莫斯科,寻觅退出江湖的联络员“桌球”,以图平叛。桌球长居北方,收养一子一女姚龙(许冠杰 饰)、叶慕美(张曼玉 饰),由于不敌泪七龙、季秋堂两方杀手,桌球挑选与泪七龙合作,将姚龙诱入对手。                                    
                                泪七龙为断根季秋堂,严酷练习天资优异的姚龙,姚龙失忆前任其左右,幸有泪七龙小女紫炎珠(李丽珍 饰)调笑陪伴。姚龙经练习成为代号“自在人”的杀戮机械,为泪七龙铲除了季秋堂势力,时代为苦苦寻觅他的叶慕美发现,但两人没法相认。季秋堂之女虎蜜斯(吴家丽 饰)同警察新田(孙兴 饰)合作,观察自在人的真脸孔。叶慕美被泪七龙带走,渐渐规复记忆的姚龙要夺回自己落空的工具……                                    
                                本片按照日本漫画《抽泣杀神》改编。
  1. ##### MediaInfo ######
  2. General
  3. Unique ID                                : 242777800398197492838238110081642806220 (0xB6A54DB63C29B0339A8A3448F39A3BCC)
  4. Complete name                            : The.Dragon.from.Russia.1990.Bluray.1080p.x264.DTS.5.1.2Audio-MOMOHD.mkv
  5. Format                                   : Matroska
  6. Format version                           : Version 4
  7. File size                                : 7.69 GiB
  8. Duration                                 : 1 h 34 min
  9. Overall bit rate                         : 11.6 Mb/s
  10. Encoded date                             : UTC 2019-10-07 12:32:04
  11. Writing application                      : mkvmerge v38.0.0 ('The Silent Type') 64-bit
  12. Writing library                          : libebml v1.3.9 + libmatroska v1.5.2
  13. Video
  14. ID                                       : 1
  15. Format                                   : AVC
  16. Format/Info                              : Advanced Video Codec
  17. Format profile                           : [email protected]
  18. Format settings                          : CABAC / 4 Ref Frames
  19. Format settings, CABAC                   : Yes
  20. Format settings, Reference frames        : 4 frames
  21. Codec ID                                 : V_MPEG4/ISO/AVC
  22. Duration                                 : 1 h 34 min
  23. Bit rate                                 : 8 567 kb/s
  24. Width                                    : 1 920 pixels
  25. Height                                   : 1 038 pixels
  26. Display aspect ratio                     : 1.85:1
  27. Frame rate mode                          : Constant
  28. Frame rate                               : 24.000 FPS
  29. Color space                              : YUV
  30. Chroma subsampling                       : 4:2:0
  31. Bit depth                                : 8 bits
  32. Scan type                                : Progressive
  33. Bits/(Pixel*Frame)                       : 0.179
  34. Stream size                              : 5.67 GiB (74%)
  35. Title                                    : [email protected]
  36. Writing library                          : x264 core 148 r2692+46 0f71ed5 7mod [[email protected] X86_64]
  37. Encoding settings                        : cabac=1 / ref=4 / deblock=1:-3:-3 / analyse=0x3:0x113 / me=umh / subme=11 / psy=1 / fade_compensate=0.00 / psy_rd=1.00:0.00 / mixed_ref=1 / me_range=48 / chroma_me=1 / trellis=2 / 8x8dct=1 / cqm=0 / deadzone=11,6 / fast_pskip=0 / chroma_qp_offset=-2 / threads=24 / lookahead_threads=4 / sliced_threads=0 / nr=0 / decimate=0 / interlaced=0 / NTM4NzU= / bluray_compat=0 / constrained_intra=0 / fgo=0 / bframes=8 / b_pyramid=2 / b_adapt=2 / b_bias=0 / direct=3 / weightb=1 / open_gop=0 / weightp=2 / keyint=250 / keyint_min=24 / NTM4NzU=uuDQuD2mJt9fsCf / scenecut=40 / intra_refresh=0 / rc_lookahead=60 / rc=crf / mbtree=0 / crf=25.0000 / qcomp=0.60 / qpmin=0:0:0 / qpmax=32:32:32 / qpstep=4 / vbv_maxrate=40000 / vbv_bufsize=30000 / crf_max=0.0 / nal_hrd=none / filler=0 / NTM4NzU=LmsMAP37EqsCpk / ip_ratio=1.30 / pb_ratio=1.20 / aq=4:0.80 / aq-sensitivity=10.00 / aq-factor=1.00:1.00:1.00 / aq2=0 / aq3=0
  38. Language                                 : Chinese
  39. Default                                  : Yes
  40. Forced                                   : No
  41. Color range                              : Limited
  42. Color primaries                          : BT.709
  43. Transfer characteristics                 : BT.709
  44. Matrix coefficients                      : BT.709
  45. Audio #1
  46. ID                                       : 2
  47. Format                                   : DTS
  48. Format/Info                              : Digital Theater Systems
  49. Codec ID                                 : A_DTS
  50. Duration                                 : 1 h 34 min
  51. Bit rate mode                            : Constant
  52. Bit rate                                 : 1 510 kb/s
  53. Channel(s)                               : 6 channels
  54. Channel layout                           : C L R Ls Rs LFE
  55. Sampling rate                            : 48.0 kHz
  56. Frame rate                               : 93.750 FPS (512 SPF)
  57. Bit depth                                : 24 bits
  58. Compression mode                         : Lossy
  59. Stream size                              : 1 023 MiB (13%)
  60. Title                                    : 粤语
  61. Language                                 : Chinese
  62. Default                                  : Yes
  63. Forced                                   : No
  64. Audio #2
  65. ID                                       : 3
  66. Format                                   : DTS
  67. Format/Info                              : Digital Theater Systems
  68. Codec ID                                 : A_DTS
  69. Duration                                 : 1 h 34 min
  70. Bit rate mode                            : Constant
  71. Bit rate                                 : 1 510 kb/s
  72. Channel(s)                               : 6 channels
  73. Channel layout                           : C L R Ls Rs LFE
  74. Sampling rate                            : 48.0 kHz
  75. Frame rate                               : 93.750 FPS (512 SPF)
  76. Bit depth                                : 24 bits
  77. Compression mode                         : Lossy
  78. Stream size                              : 1 023 MiB (13%)
  79. Title                                    : 国语
  80. Language                                 : Chinese
  81. Default                                  : No
  82. Forced                                   : No
  83. Text #1
  84. ID                                       : 4
  85. Format                                   : PGS
  86. Muxing mode                              : zlib
  87. Codec ID                                 : S_HDMV/PGS
  88. Codec ID/Info                            : Picture based subtitle format used on BDs/HD-DVDs
  89. Duration                                 : 1 h 30 min
  90. Bit rate                                 : 30.8 kb/s
  91. Count of elements                        : 1828
  92. Stream size                              : 20.0 MiB (0%)
  93. Title                                    : 简中
  94. Language                                 : Chinese
  95. Default                                  : Yes
  96. Forced                                   : No
  97. Text #2
  98. ID                                       : 5
  99. Format                                   : PGS
  100. Muxing mode                              : zlib
  101. Codec ID                                 : S_HDMV/PGS
  102. Codec ID/Info                            : Picture based subtitle format used on BDs/HD-DVDs
  103. Duration                                 : 1 h 30 min
  104. Bit rate                                 : 31.5 kb/s
  105. Count of elements                        : 1828
  106. Stream size                              : 20.4 MiB (0%)
  107. Title                                    : 繁中
  108. Language                                 : Chinese
  109. Default                                  : No
  110. Forced                                   : No
  111. Text #3
  112. ID                                       : 6
  113. Format                                   : PGS
  114. Muxing mode                              : zlib
  115. Codec ID                                 : S_HDMV/PGS
  116. Codec ID/Info                            : Picture based subtitle format used on BDs/HD-DVDs
  117. Duration                                 : 1 h 30 min
  118. Bit rate                                 : 33.3 kb/s
  119. Count of elements                        : 1828
  120. Stream size                              : 21.6 MiB (0%)
  121. Title                                    : 英文
  122. Language                                 : English
  123. Default                                  : No
  124. Forced                                   : No
  125. Menu #1
  126. 00:00:00.000                             : :绗?01 绔?
  127. 00:08:51.292                             : :绗?02 绔?
  128. 00:16:04.208                             : :绗?03 绔?
  129. 00:23:31.208                             : :绗?04 绔?
  130. 00:31:22.750                             : :绗?05 绔?
  131. 00:39:58.583                             : :绗?06 绔?
  132. 00:48:58.667                             : :绗?07 绔?
  133. 00:56:40.000                             : :绗?08 绔?
  134. 01:04:21.208                             : :绗?09 绔?
  135. 01:10:23.083                             : :绗?10 绔?
  136. 01:18:38.750                             : :绗?11 绔?
  137. 01:27:36.792                             : :绗?12 绔?
  138. Menu #2
  139. 00:00:00.000                             : :绗?01 绔?
  140. 00:08:51.292                             : :绗?02 绔?
  141. 00:16:04.208                             : :绗?03 绔?
  142. 00:23:31.208                             : :绗?04 绔?
  143. 00:31:22.750                             : :绗?05 绔?
  144. 00:39:58.583                             : :绗?06 绔?
  145. 00:48:58.667                             : :绗?07 绔?
  146. 00:56:40.000                             : :绗?08 绔?
  147. 01:04:21.208                             : :绗?09 绔?
  148. 01:10:23.083                             : :绗?10 绔?
  149. 01:18:38.750                             : :绗?11 绔?
  150. 01:27:36.792                             : :绗?12 绔?
  151. Menu #3
  152. 00:00:00.000                             : :绗?01 绔?
  153. 00:08:51.292                             : :绗?02 绔?
  154. 00:16:04.208                             : :绗?03 绔?
  155. 00:23:31.208                             : :绗?04 绔?
  156. 00:31:22.750                             : :绗?05 绔?
  157. 00:39:58.583                             : :绗?06 绔?
  158. 00:48:58.667                             : :绗?07 绔?
  159. 00:56:40.000                             : :绗?08 绔?
  160. 01:04:21.208                             : :绗?09 绔?
  161. 01:10:23.083                             : :绗?10 绔?
  162. 01:18:38.750                             : :绗?11 绔?
  163. 01:27:36.792                             : :绗?12 绔?
复制代码

















保举请利用qBittorrent,utorrent,transmission等标准BT软件下载!以获得最快速度。奉求保种!





回复

使用道具 举报

懒得打字嘛,点击右侧快捷回复 【右侧内容,后台自定义】
您需要登录后才可以回帖 登录 | 立即加入

本版积分规则

Archiver|小黑屋| 蓝光电影网 |网站地图

Copyright © 2021 Comsenz Inc. Powered by 蓝光电影网

蓝光电影网

本站内容由用户自主分享和转载自互联网,转载目的在于传递更多信息,并不代表本网赞同其观点和对其真实性负责。

如有侵权、违反国家法律政策行为,请联系我们,我们会第一时间及时清除和处理!

举报反馈邮箱:[email protected]

快速回复 返回顶部 返回列表